<?xml version="1.0" standalone="no"?>
<!DOCTYPE svg PUBLIC "-//W3C//DTD SVG 1.1//EN" "http://www.w3.org/Graphics/SVG/1.1/DTD/svg11.dtd" >
<svg>
<metadata>
Created by FontForge 20090914 at Mon Apr 23 17:57:22 2012
 By www-data
Copyright (c) 2009 by &#194;&#169; 2009 Designed by Svetoslav Simov &#194;&#169; Fontfabric, Inc. All rights reserved.
</metadata>
<defs>
<font id="Uni-Sans-Regular" horiz-adv-x="240" >
  <font-face 
    font-family="Uni Sans Regular"
    font-weight="400"
    font-stretch="normal"
    units-per-em="1000"
    panose-1="2 11 4 2 2 2 3 2 2 4"
    ascent="756"
    descent="-244"
    x-height="518"
    cap-height="708"
    bbox="-174 -216 1077 932.001"
    underline-thickness="50"
    underline-position="-50"
    unicode-range="U+0020-U+FB02"
  />
<missing-glyph horiz-adv-x="500" 
d="M-9 0v700h508v-700h-508zM245 419l139 206h-277zM290 350l134 -199v398zM107 75h277l-139 206zM66 549v-399l134 200z" />
    <glyph glyph-name="fi" unicode="fi" horiz-adv-x="494" 
d="M243 713v-78.001c-36 0 -63.833 -8.33301 -83.5 -25s-29.5 -40 -29.5 -70v-96h106v-80h-106v-364h-80v540c0 55.333 18 97.833 54 127.5s82.333 44.834 139 45.501zM315 648.999c0 16 5.5 29.333 16.5 40s24.167 16 39.5 16c16 0 29.333 -5.33301 40 -16s16 -24 16 -40
c0 -15.333 -5.33301 -28.5 -16 -39.5s-24 -16.5 -40 -16.5c-15.333 0 -28.5 5.5 -39.5 16.5s-16.5 24.167 -16.5 39.5zM333 520.999h80v-521h-80v521z" />
    <glyph glyph-name="fl" unicode="fl" horiz-adv-x="522" 
d="M244 713v-78.001c-36 0 -63.833 -8.33301 -83.5 -25s-29.5 -40 -29.5 -70v-96h106v-80h-106v-364h-80v540c0 55.333 18 97.833 54 127.5s82.333 44.834 139 45.501zM504 75.999v-80c-56 0 -99.333 14.833 -130 44.5s-46 71.167 -46 124.5v534h80v-534
c0 -59.333 32 -89 96 -89z" />
    <glyph glyph-name=".notdef" horiz-adv-x="500" 
d="M-9 0v700h508v-700h-508zM245 419l139 206h-277zM290 350l134 -199v398zM107 75h277l-139 206zM66 549v-399l134 200z" />
    <glyph glyph-name="space" unicode=" " horiz-adv-x="260" 
 />
    <glyph glyph-name="exclam" unicode="!" horiz-adv-x="293" 
d="M182 698v-522h-82v522h82zM82 53c0 16.667 5.66699 30.667 17 42s25.333 17 42 17s30.667 -5.66699 42 -17s17 -25.333 17 -42s-5.66699 -30.667 -17 -42s-25.333 -17 -42 -17s-30.667 5.66699 -42 17s-17 25.333 -17 42z" />
    <glyph glyph-name="quotedbl" unicode="&#x22;" horiz-adv-x="348" 
d="M57 455v243h85l-18 -243h-67zM188 455v243h85l-19 -243h-66z" />
    <glyph glyph-name="numbersign" unicode="#" horiz-adv-x="715" 
d="M518 415l-36.002 -125.002h170l-18 -79h-177l-62 -212h-86l62 212h-126c-6.66699 -25.333 -17.167 -62.166 -31.5 -110.499s-24.166 -82.166 -29.499 -101.499h-87l62 212h-148l17 79h155c3.33301 12 9.33301 31.333 18 58s15.334 49 20.001 67h-171l17 80h178l59 202h87
l-60 -202h125l60 202h87l-61 -202h151l-22 -80h-153zM431.998 414.998l-125 -0.000976562l-17.5 -57c-8.33301 -27.333 -14.833 -50 -19.5 -68h124c21.333 68.667 34 110.334 38 125.001z" />
    <glyph glyph-name="dollar" unicode="$" horiz-adv-x="569" 
d="M110 521c-2.66699 -32 6.66797 -55.666 28.001 -70.999s53.666 -28 96.999 -38v216c-34.667 -4.66699 -63.667 -16.334 -87 -35.001s-36 -42.667 -38 -72zM308.002 629.001l-0.00585938 -231.997c34 -6.66699 62.167 -14 84.5 -22s45.333 -19.833 69 -35.5
s40.834 -36.834 51.501 -63.501s15 -59 13 -97c-3.33301 -54.667 -25.666 -98.667 -66.999 -132s-91.666 -52.333 -150.999 -57v-98h-73v98c-49.333 5.33301 -94.166 20.666 -134.499 45.999s-69.5 59.666 -87.5 102.999l76 34c12 -28 31 -50.5 57 -67.5
s55.667 -27.833 89 -32.5v256c-33.333 7.33301 -60.333 14.666 -81 21.999s-42.167 18 -64.5 32s-38.666 33 -48.999 57s-14.5 52.667 -12.5 86v-1c2 54 22.333 96.833 61 128.5s87.334 50.834 146.001 57.501v97h73v-97c48.667 -4.66699 93.167 -19.667 133.5 -45
s69.5 -59 87.5 -101l-75 -34c-12.667 28 -32 50.5 -58 67.5s-55.333 27.167 -88 30.5zM307.996 313.004v-240.002c36 4.66699 66.667 16.667 92 36s40 44 44 74c0.666992 36.667 -10.833 64.834 -34.5 84.501s-57.5 34.834 -101.5 45.501z" />
    <glyph glyph-name="percent" unicode="%" horiz-adv-x="768" 
d="M329 511c0 -59.333 -14.3311 -106.5 -42.998 -141.5s-65.667 -52.5 -111 -52.5c-48.667 0 -86.334 16.833 -113.001 50.5s-40 82.167 -40 145.5c0 58 14.167 104.5 42.5 139.5s65.166 52.5 110.499 52.5c48 0 85.667 -17 113 -51s41 -81.667 41 -143zM745.002 184
c0 -59.333 -14.168 -106.333 -42.501 -141s-65.166 -52 -110.499 -52c-49.333 0 -87.166 16.667 -113.499 50s-39.5 81.666 -39.5 144.999c0 58.667 14.167 105.334 42.5 140.001s65.166 52 110.499 52c48 0 85.5 -17 112.5 -51s40.5 -81.667 40.5 -143zM664.001 184
c0 76.667 -24.334 115 -73.001 115c-47.333 0 -71 -37.667 -71 -113c0 -40 5.83301 -69 17.5 -87s29.834 -27 54.501 -27c48 0 72 37.333 72 112zM652 700l-488 -771l-66 43l487 771zM247 511c0 76 -24.333 114 -73 114c-46.667 0 -70 -37.333 -70 -112
c0 -40 5.83301 -69 17.5 -87s29.5 -27 53.5 -27c48 0 72 37.333 72 112z" />
    <glyph glyph-name="ampersand" unicode="&#x26;" horiz-adv-x="629" 
d="M315 378l137.999 -146.001l26 43c12 20 20.333 34.333 25 43l70 -35l-64 -107l117 -135h-107l-58 64c-28.667 -36 -59.167 -63.167 -91.5 -81.5s-70.166 -27.5 -113.499 -27.5c-60.667 0 -111.5 18.5 -152.5 55.5s-61.5 85.833 -61.5 146.5
c0 24.667 3.66699 46.834 11 66.501s18.666 37.5 33.999 53.5s29.833 29 43.5 39s31.834 22 54.501 36c-48.667 56.667 -73 107.334 -73 152.001c0 48.667 17.667 87.667 53 117s77.333 44 126 44c44 0 82.167 -14.167 114.5 -42.5s48.5 -64.5 48.5 -108.5
c0 -42.667 -12.167 -76.834 -36.5 -102.501s-58.833 -50.5 -103.5 -74.5zM408.999 161.999l-171 177.001c-34 -20.667 -61.167 -41.834 -81.5 -63.501s-30.5 -46.834 -30.5 -75.501c0 -37.333 13.5 -67.666 40.5 -90.999s60.167 -35 99.5 -35c51.333 0 99 29.333 143 88z
M288.999 631c-26 0 -47.832 -7.99707 -65.499 -23.9971s-26.5 -36.333 -26.5 -61c0 -28.667 21.333 -67.334 64 -116.001c15.333 8 28.333 15.167 39 21.5s22.167 14.666 34.5 24.999s21.666 21.666 27.999 33.999s9.5 25.833 9.5 40.5c0 23.333 -7.83301 42.5 -23.5 57.5
s-35.5 22.5 -59.5 22.5z" />
    <glyph glyph-name="quotesingle" unicode="'" horiz-adv-x="203" 
d="M54 455v243h84l-13 -243h-71z" />
    <glyph glyph-name="parenleft" unicode="(" horiz-adv-x="275" 
d="M188 776l68 -45.001c-41.333 -53.333 -73 -115.5 -95 -186.5s-33 -140.167 -33 -207.5c0 -127.333 43 -259.666 129 -396.999l-65 -42c-46.667 64.667 -82.667 135.5 -108 212.5s-38 152.5 -38 226.5c0 76 12.5 152.5 37.5 229.5s59.833 146.833 104.5 209.5z" />
    <glyph glyph-name="parenright" unicode=")" horiz-adv-x="260" 
d="M65 -132l-71 45.001c42 52.667 74.167 114.667 96.5 186s33.5 140.666 33.5 207.999c0 142 -42.667 280.333 -128 415l65 43c46 -64 82 -137.5 108 -220.5s39 -162.167 39 -237.5s-12.5 -151.5 -37.5 -228.5s-60.167 -147.167 -105.5 -210.5z" />
    <glyph glyph-name="asterisk" unicode="*" horiz-adv-x="419" 
d="M238 698v-139l132 43l21 -70l-131 -41l83 -113l-56 -43l-85 115l-83 -116l-60 43l85 115l-134 43l20 69l137 -44v138h71z" />
    <glyph glyph-name="plus" unicode="+" horiz-adv-x="621" 
d="M48 296v82h219v213h81v-213h210v-82h-210v-215h-81v215h-219z" />
    <glyph glyph-name="comma" unicode="," horiz-adv-x="246" 
d="M25 -131l70 243h94l-82 -243h-82z" />
    <glyph glyph-name="hyphen" unicode="-" horiz-adv-x="333" 
d="M32 257v82h261v-82h-261z" />
    <glyph glyph-name="period" unicode="." horiz-adv-x="232" 
d="M58 53c0 16.667 5.66699 30.667 17 42s25.333 17 42 17s30.667 -5.66699 42 -17s17 -25.333 17 -42s-5.66699 -30.667 -17 -42s-25.333 -17 -42 -17s-30.667 5.66699 -42 17s-17 25.333 -17 42z" />
    <glyph glyph-name="slash" unicode="/" horiz-adv-x="370" 
d="M-4 -11l298 747l74 -26l-297 -748z" />
    <glyph glyph-name="zero" unicode="0" horiz-adv-x="601" 
d="M121 198c0 -29.333 9.16699 -54 27.5 -74s40 -33.667 65 -41s51.833 -11 80.5 -11s55.5 3.66699 80.5 11s46.667 21 65 41s27.5 44.667 27.5 74v306c0 43.333 -17.167 75.166 -51.5 95.499s-74.833 30.5 -121.5 30.5s-87.167 -10.167 -121.5 -30.5
s-51.5 -52.166 -51.5 -95.499v-306zM294 -10c-42.667 0 -82.834 7.16895 -120.501 21.502s-69.667 37.666 -96 69.999s-39.5 71.166 -39.5 116.499v306c0 45.333 13.167 84.333 39.5 117s58.333 56 96 70s77.834 21 120.501 21s82.667 -7 120 -21s69.166 -37.333 95.499 -70
s39.5 -71.667 39.5 -117v-306c0 -66.667 -25.667 -118 -77 -154s-110.666 -54 -177.999 -54z" />
    <glyph glyph-name="one" unicode="1" horiz-adv-x="325" 
d="M170 699h76v-699h-81v580l-100 -107l-62 50z" />
    <glyph glyph-name="two" unicode="2" horiz-adv-x="551" 
d="M270 628c-39.333 0.666992 -74.666 -8.33105 -105.999 -26.998s-54.333 -44 -69 -76l-74 31c20.667 48.667 53.834 86.667 99.501 114s96.167 40.333 151.5 39c69.333 -2.66699 125.666 -23.334 168.999 -62.001s65 -85.334 65 -140.001
c0 -28 -7.83301 -58.167 -23.5 -90.5s-36.834 -62.166 -63.501 -89.499l-257 -244h344v-82h-462l-26 60l341 323c42.667 40.667 64 82 64 124c0 33.333 -14 61.166 -42 83.499s-65 34.5 -111 36.5z" />
    <glyph glyph-name="three" unicode="3" horiz-adv-x="578" 
d="M7 134l74.999 36.0049c14.667 -30.667 38.834 -54.334 72.501 -71.001s69.834 -25 108.501 -25c47.333 0 87.833 11.167 121.5 33.5s50.5 54.166 50.5 95.499c0 46.667 -13.5 81.667 -40.5 105s-64.833 34.666 -113.5 33.999h-69v72h69c37.333 0 67.166 8.5 89.499 25.5
s33.5 43.167 33.5 78.5c0 36 -13.5 63.667 -40.5 83s-60.167 29 -99.5 29c-32.667 0 -63.5 -7.33301 -92.5 -22s-50.833 -35.334 -65.5 -62.001l-71 37c20 40 50.667 71.167 92 93.5s85.333 33.5 132 33.5c62 0 115.167 -16.833 159.5 -50.5s66.5 -80.834 66.5 -141.501
c0 -66 -27 -111.333 -81 -136c37.333 -12.667 65.5 -35.5 84.5 -68.5s28.5 -70.167 28.5 -111.5c-0.666992 -45.333 -13.667 -84.5 -39 -117.5s-57 -57 -95 -72s-79 -22.5 -123 -22.5c-53.333 0 -103.333 12.5 -150 37.5s-81 60.5 -103 106.5z" />
    <glyph glyph-name="four" unicode="4" horiz-adv-x="538" 
d="M459 699v-447h56v-76h-56v-174h-82v174h-322l-54 73l372 450h86zM377 252l2 331l-272 -331h270z" />
    <glyph glyph-name="five" unicode="5" horiz-adv-x="584" 
d="M22 134l74.999 36c14.667 -29.333 38 -52.166 70 -68.499s66.333 -24.5 103 -24.5c47.333 0 88.333 11.667 123 35s52 56.333 52 99v41c0 42 -16.167 73.5 -48.5 94.5s-72.833 31.5 -121.5 31.5c-59.333 0 -119 -14 -179 -42l-46 -2v364h442v-82h-360v-181
c49.333 18.667 97 27.667 143 27c43.333 -0.666992 83.333 -7.83398 120 -21.501s67.667 -36.667 93 -69s38.333 -71.833 39 -118.5v-43c-0.666992 -68.667 -26.667 -122.167 -78 -160.5s-111.666 -57.5 -180.999 -57.5c-52 0 -100.5 12.333 -145.5 37
s-78.5 59.667 -100.5 105z" />
    <glyph glyph-name="six" unicode="6" horiz-adv-x="618" 
d="M492 538l-19 6.00195c-12.667 26.667 -33.834 46.834 -63.501 60.501s-63.5 20.5 -101.5 20.5c-49.333 0 -91.666 -11.167 -126.999 -33.5s-53 -53.833 -53 -94.5v-126c20.667 27.333 47.667 47.5 81 60.5s66.333 19.5 99 19.5
c70.667 -0.666992 131.334 -19.334 182.001 -56.001s76 -87.667 76 -153v-41c0 -65.333 -25.333 -116.5 -76 -153.5s-111.334 -55.5 -182.001 -55.5c-45.333 -0.666992 -87.5 6.66602 -126.5 21.999s-71.333 39.166 -97 71.499s-38.834 70.833 -39.501 115.5v297
c0 66 26 117.5 78 154.5s113.667 55.167 185 54.5c52.667 0 101.334 -12 146.001 -36s78 -58 100 -102zM483 241.002c0 40.667 -17.167 72.167 -51.5 94.5s-75.5 33.5 -123.5 33.5c-49.333 0 -91.666 -11.167 -126.999 -33.5s-53 -53.833 -53 -94.5v-39
c0 -40.667 17.667 -72.167 53 -94.5s77.666 -33.5 126.999 -33.5c48 0 89.167 11.167 123.5 33.5s51.5 53.833 51.5 94.5v39z" />
    <glyph glyph-name="seven" unicode="7" horiz-adv-x="511" 
d="M380 617h-362v82h445l27 -55l-369 -644h-93z" />
    <glyph glyph-name="eight" unicode="8" horiz-adv-x="583" 
d="M290 71c46 0 86.5 11.167 121.5 33.5s52.5 55.5 52.5 99.5c0 92 -58 138 -174 138h-18c-116 0 -174 -46 -174 -138c0 -44 17.5 -77.167 52.5 -99.5s75.5 -33.5 121.5 -33.5h18zM272 -11c-68.667 0 -128.168 18.833 -178.501 56.5s-75.833 90.167 -76.5 157.5
c0 38 9.66699 72.833 29 104.5s47.666 55.834 84.999 72.501c-26 9.33301 -46.333 27 -61 53s-22 53 -22 81c0.666992 60.667 23 107.834 67 141.501s96.333 50.5 157 50.5h18c61.333 0 114 -16.833 158 -50.5s66 -80.834 66 -141.501c0 -28 -6.66699 -54.833 -20 -80.5
s-32 -43.834 -56 -54.501c34.667 -12 61.334 -34.5 80.001 -67.5s28 -69.167 28 -108.5c-1.33301 -67.333 -27.166 -119.833 -77.499 -157.5s-109.833 -56.5 -178.5 -56.5h-18zM271.999 626c-40 0 -73.833 -9.66699 -101.5 -29s-41.5 -47 -41.5 -83
c0 -67.333 47.667 -101 143 -101h18c95.333 0 143 33.667 143 101c0 36 -13.833 63.667 -41.5 83s-61.5 29 -101.5 29h-18z" />
    <glyph glyph-name="nine" unicode="9" horiz-adv-x="609" 
d="M40 129l75 38.001c14 -30.667 36.5 -54 67.5 -70s65.5 -24 103.5 -24c49.333 0 91.666 11.167 126.999 33.5s53 53.833 53 94.5v123c-33.333 -50.667 -93.333 -76 -180 -76c-70.667 0.666992 -131.5 19.167 -182.5 55.5s-76.5 87.166 -76.5 152.499v41
c0 66 25.5 117.333 76.5 154s111.833 55 182.5 55c70.667 0.666992 131.834 -17.5 183.501 -54.5s77.834 -88.5 78.501 -154.5v-297c0 -65.333 -26 -116.5 -78 -153.5s-113.333 -55.5 -184 -55.5c-52.667 0 -101.334 12 -146.001 36s-78 58 -100 102zM110 496.001
l0.000976562 -39c0 -40.667 17.167 -72.167 51.5 -94.5s75.833 -33.5 124.5 -33.5c49.333 0 91.666 11.167 126.999 33.5s53 53.833 53 94.5v39c0 41.333 -17.5 73 -52.5 95s-77.5 33 -127.5 33c-48.667 0 -90.167 -11.167 -124.5 -33.5s-51.5 -53.833 -51.5 -94.5z" />
    <glyph glyph-name="colon" unicode=":" horiz-adv-x="234" 
d="M56 426c0 16.667 5.66699 30.667 17 42s25.333 17 42 17s30.667 -5.66699 42 -17s17 -25.333 17 -42s-5.66699 -30.667 -17 -42s-25.333 -17 -42 -17s-30.667 5.66699 -42 17s-17 25.333 -17 42zM56 67c0 16.667 5.66699 30.667 17 42s25.333 17 42 17
s30.667 -5.66699 42 -17s17 -25.333 17 -42s-5.66699 -30.5 -17 -41.5s-25.333 -16.5 -42 -16.5s-30.667 5.5 -42 16.5s-17 24.833 -17 41.5z" />
    <glyph glyph-name="semicolon" unicode=";" horiz-adv-x="248" 
d="M27 -131l61 243h103l-82 -243h-82zM61 412c0 16.667 5.66699 30.667 17 42s25.333 17 42 17s30.5 -5.66699 41.5 -17s16.5 -25.333 16.5 -42s-5.5 -30.667 -16.5 -42s-24.833 -17 -41.5 -17s-30.667 5.66699 -42 17s-17 25.333 -17 42z" />
    <glyph glyph-name="less" unicode="&#x3c;" horiz-adv-x="474" 
d="M408 546v-94l-259 -151l259 -149v-93l-360 211v61z" />
    <glyph glyph-name="equal" unicode="=" horiz-adv-x="550" 
d="M68 333v78h413v-78h-413zM68 181v79h413v-79h-413z" />
    <glyph glyph-name="greater" unicode="&#x3e;" horiz-adv-x="480" 
d="M64 452v94l361 -215v-61l-361 -211v93l259 149z" />
    <glyph glyph-name="question" unicode="?" horiz-adv-x="476" 
d="M2 610l9 11c22.667 28 51.334 49.667 86.001 65s71.334 23 110.001 23c62.667 0 116.334 -18.333 161.001 -55s66.667 -87.334 66 -152.001c-0.666992 -62 -19.334 -110.5 -56.001 -145.5s-83.667 -58.167 -141 -69.5c-0.666992 -17.333 -1.83398 -41 -3.50098 -71
s-2.83398 -53 -3.50098 -69h-71l-6 209c54.667 0.666992 101.834 14.334 141.501 41.001s59.167 62 58.5 106c-0.666992 40 -15.5 70.833 -44.5 92.5s-63.5 32.5 -103.5 32.5c-56.667 0 -103.334 -22.333 -140.001 -67zM141 49c0 15.333 5.16699 28.166 15.5 38.499
s23.166 15.5 38.499 15.5s28.166 -5.16699 38.499 -15.5s15.5 -23.166 15.5 -38.499s-5.16699 -28.166 -15.5 -38.499s-23.166 -15.5 -38.499 -15.5s-28.166 5.16699 -38.499 15.5s-15.5 23.166 -15.5 38.499z" />
    <glyph glyph-name="at" unicode="@" horiz-adv-x="756" 
d="M254 283c0 -22 6.16699 -40 18.5 -54s28.833 -21 49.5 -21c37.333 0 70.5 22.167 99.5 66.5s43.5 87.5 43.5 129.5c0 56 -20.667 84 -62 84c-46 0.666992 -82.333 -21 -109 -65s-40 -90.667 -40 -140zM606 545l-2 3.00098c-23.333 28.667 -53.5 50.834 -90.5 66.501
s-76.833 23.5 -119.5 23.5c-79.333 0 -146.333 -28.5 -201 -85.5s-82 -124.167 -82 -201.5c0 -88 24 -158.167 72 -210.5s117.333 -78.5 208 -78.5c34 0 68.333 7 103 21l34 -64c-48.667 -18.667 -94.334 -28 -137.001 -28c-117.333 0 -206 33.5 -266 100.5
s-90 153.5 -90 259.5c0 100.667 34.5 185.667 103.5 255s153.5 104 253.5 104c94 0 172.667 -28 236 -84s95 -125.667 95 -209c0 -78.667 -23.833 -146.334 -71.5 -203.001s-100.5 -85 -158.5 -85c-40.667 0 -62 20.667 -64 62c-12 -18.667 -28.5 -33 -49.5 -43
s-42.833 -15 -65.5 -15c-37.333 0 -69.333 15.167 -96 45.5s-40 64.5 -40 102.5c0 73.333 21 138.666 63 195.999s97.333 86 166 86c20.667 0 40.834 -6.16699 60.501 -18.5s31.5 -28.833 35.5 -49.5l13 35l79 -3l-87 -269
c-1.33301 -4.66699 -2.83301 -9.33398 -4.5 -14.001s-2.83398 -9.33398 -3.50098 -14.001s-1 -8.66699 -1 -12s1.33301 -6.16602 4 -8.49902s6.33398 -3.5 11.001 -3.5c30 0 59.667 23 89 69s44 93.333 44 142c0 50.667 -13.667 93.334 -41 128.001z" />
    <glyph glyph-name="A" unicode="A" horiz-adv-x="619" 
d="M-4 0l254 708h102l256 -708h-88l-82 227h-273l-80 -227h-89zM193 311h216l-108 307z" />
    <glyph glyph-name="B" unicode="B" horiz-adv-x="625" 
d="M153 417h188c84 0 126 35 126 105c0 68.667 -42 103 -126 103h-188v-208zM341 333h-188v-249h188c50 -1.33301 88.667 7 116 25s41 49.667 41 95c0 87.333 -52.333 130.333 -157 129zM549 522c0 -62.667 -19.666 -110.333 -58.999 -143c61.333 -31.333 92 -90 92 -176
c-2.66699 -135.333 -83.334 -203 -242.001 -203h-271v709h272c60 0 109.667 -16.167 149 -48.5s59 -78.5 59 -138.5z" />
    <glyph glyph-name="C" unicode="C" horiz-adv-x="576" 
d="M38 494c0 69.333 26.832 123.499 80.499 162.499s116.834 58.5 189.501 58.5c54 0 103.833 -12.167 149.5 -36.5s79.167 -59.5 100.5 -105.5l-75 -38c-16 30.667 -40.333 54.334 -73 71.001s-67.667 25 -105 25c-49.333 0 -92.166 -12 -128.499 -36
s-54.5 -57.667 -54.5 -101v-280c0 -43.333 18.167 -77 54.5 -101s79.166 -36 128.499 -36c38 0 73.333 8.16699 106 24.5s56.667 39.833 72 70.5l75 -35c-22 -46 -56.333 -81.5 -103 -106.5s-96.667 -37.5 -150 -37.5c-72 0 -134.5 19.5 -187.5 58.5
s-79.5 93.167 -79.5 162.5v280z" />
    <glyph glyph-name="D" unicode="D" horiz-adv-x="636" 
d="M309 0h-240.001v708h240c74.667 0 138.167 -18 190.5 -54s78.5 -89 78.5 -159v-283c0 -47.333 -13.333 -87.5 -40 -120.5s-59.667 -56.5 -99 -70.5s-82.666 -21 -129.999 -21zM151.999 84l157 0.000976562c52 0 95.833 10.667 131.5 32s53.5 53.333 53.5 96v283
c0 43.333 -17.833 75.666 -53.5 96.999s-79.5 32 -131.5 32h-157v-540z" />
    <glyph glyph-name="E" unicode="E" horiz-adv-x="572" 
d="M522 709v-84h-370v-229h341v-84h-341v-228h370v-84h-454v709h454z" />
    <glyph glyph-name="F" unicode="F" horiz-adv-x="546" 
d="M521 708v-84h-369v-248h324v-84h-324v-292h-84v708h453z" />
    <glyph glyph-name="G" unicode="G" horiz-adv-x="653" 
d="M35 214v284.999c0 46.667 13.167 87.167 39.5 121.5s59.5 59.5 99.5 75.5s83 24 129 24c52.667 0 102 -12.5 148 -37.5s80 -60.5 102 -106.5l-76 -36c-14.667 30.667 -38.334 54.334 -71.001 71.001s-67.667 25 -105 25c-49.333 0 -92.166 -12 -128.499 -36
s-54.5 -57.667 -54.5 -101v-285c0 -44 18.333 -78.167 55 -102.5s80 -36.5 130 -36.5s93.5 12.167 130.5 36.5s55.5 58.5 55.5 102.5v71h-209v83h292v-154c0 -70.667 -26.5 -125.667 -79.5 -165s-116.167 -59 -189.5 -59s-136.333 19.667 -189 59s-79 94.333 -79 165z" />
    <glyph glyph-name="H" unicode="H" horiz-adv-x="688" 
d="M522 0v312h-370v-312h-84v708h84v-313h370v313h84v-708h-84z" />
    <glyph glyph-name="I" unicode="I" horiz-adv-x="232" 
d="M66 0v708h83v-708h-83z" />
    <glyph glyph-name="J" unicode="J" horiz-adv-x="579" 
d="M415 624l-226.998 -0.000976562v84h311v-500c0 -68.667 -25.667 -122.5 -77 -161.5s-112 -58.5 -182 -58.5c-60.667 0 -115 16.833 -163 50.5s-78 81.167 -90 142.5l83 14c7.33301 -39.333 27.666 -70.166 60.999 -92.499s70.666 -33.5 111.999 -33.5
c46.667 0 87 12.167 121 36.5s51 58.5 51 102.5v416z" />
    <glyph glyph-name="K" unicode="K" horiz-adv-x="608" 
d="M69 708h84v-356l362 356h111l-341 -341l337 -367h-109l-288 307l-72 -72v-235h-84v708z" />
    <glyph glyph-name="L" unicode="L" horiz-adv-x="499" 
d="M493 84v-84h-424v708h84v-624h340z" />
    <glyph glyph-name="M" unicode="M" horiz-adv-x="797" 
d="M427 93h-71l-205 457v-550h-84v708h105l219 -494l219 494h105v-708h-84v551z" />
    <glyph glyph-name="N" unicode="N" horiz-adv-x="689" 
d="M69 708h90l364 -585v585h84v-708h-106l-348 561v-561h-84v708z" />
    <glyph glyph-name="O" unicode="O" horiz-adv-x="682" 
d="M51 503c0 70 28 124.499 84 163.499s122.333 58.5 199 58.5c48.667 0 94 -8 136 -24s77 -41.167 105 -75.5s42 -75.166 42 -122.499v-297c0 -47.333 -14 -88.333 -42 -123s-63 -60 -105 -76s-87.333 -24 -136 -24c-76.667 0 -143 19.667 -199 59s-84 94 -84 164v297z
M134 502.999l-0.000976562 -296.999c0 -44 19.667 -78.333 59 -103s86.333 -37 141 -37c54 0 100.667 12.333 140 37s59.333 59 60 103v297c0 46 -19.667 80.833 -59 104.5s-86.666 35.5 -141.999 35.5c-54.667 -0.666992 -101.5 -12.834 -140.5 -36.501
s-58.5 -58.167 -58.5 -103.5z" />
    <glyph glyph-name="P" unicode="P" horiz-adv-x="616" 
d="M153 255v-255h-83v708h270c75.333 0 134 -22.5 176 -67.5s63 -98.167 63 -159.5s-21 -114.333 -63 -159s-100.333 -67 -175 -67h-188zM340 339c49.333 0 87.666 14.002 114.999 42.002s41 61.333 41 100c0 39.333 -13.667 73.166 -41 101.499
s-65.666 42.166 -114.999 41.499h-187v-285h187z" />
    <glyph glyph-name="Q" unicode="Q" horiz-adv-x="683" 
d="M459 225l58.001 -76c11.333 16 17 36 17 60v290c0 46 -19.5 80.833 -58.5 104.5s-86.167 35.5 -141.5 35.5c-54.667 -0.666992 -101.334 -13 -140.001 -37s-58 -58.333 -58 -103v-290c-0.666992 -44 18.666 -78.333 57.999 -103s86 -37 140 -37c47.333 0 89 9 125 27
l-35.5 44.5c-12.333 15 -23.166 28.833 -32.499 41.5zM571.001 79l46.999 -56.001l-65 -44l-44 50c-51.333 -28.667 -109.333 -43 -174 -43c-76.667 0 -143 19.667 -199 59s-84 94 -84 164v290c0 70 28 124.5 84 163.5s122.333 58.5 199 58.5
c48.667 0 93.834 -8 135.501 -24s76.5 -41.167 104.5 -75.5s42 -75.166 42 -122.499v-290c0 -48 -15.333 -91.333 -46 -130z" />
    <glyph glyph-name="R" unicode="R" horiz-adv-x="624" 
d="M366 290l228 -289.999h-103l-229 289h-109v-289h-84v708h270c72 0 130 -17.333 174 -52s66.667 -88 68 -160c0 -66.667 -19.667 -116.834 -59 -150.501s-91.333 -52.167 -156 -55.5zM153 367.001h187c50.667 0 89.5 10 116.5 30s40.5 53 40.5 99
c0 87.333 -52.333 130 -157 128h-187v-257z" />
    <glyph glyph-name="S" unicode="S" horiz-adv-x="595" 
d="M128 528c-1.33301 -16.667 1.17383 -31.165 7.50684 -43.498s14 -22.333 23 -30s22.667 -14.667 41 -21s33.666 -11 45.999 -14s30.833 -6.83301 55.5 -11.5c26.667 -5.33301 47.5 -9.83301 62.5 -13.5s34.167 -9.33398 57.5 -17.001s41.666 -16.5 54.999 -26.5
s26.666 -22.667 39.999 -38s22.666 -34 27.999 -56s7.33301 -47 6 -75c-3.33301 -61.333 -30 -109 -80 -143s-109 -51 -177 -51c-56.667 0 -109.334 13.167 -158.001 39.5s-83.667 63.833 -105 112.5l77 35c14.667 -32.667 39.5 -58.167 74.5 -76.5
s72.833 -27.5 113.5 -27.5c45.333 0 84.5 10 117.5 30s50.833 48.333 53.5 85c1.33301 16.667 0.333008 31.5 -3 44.5s-9.83301 24.167 -19.5 33.5s-19.167 17.166 -28.5 23.499s-22.833 12.333 -40.5 18s-32.167 9.83398 -43.5 12.501s-28 6.33398 -50 11.001
c-27.333 6 -50.5 11.667 -69.5 17s-39.833 13.166 -62.5 23.499s-40.834 22.333 -54.501 36s-25.334 31.167 -35.001 52.5s-14.5 45.666 -14.5 72.999c3.33301 59.333 29.333 105.833 78 139.5s105.667 50.5 171 50.5c55.333 0 107.166 -12.833 155.499 -38.5
s82.833 -62.167 103.5 -109.5l-76 -34c-14 32 -38.167 56.833 -72.5 74.5s-71.166 26.5 -110.499 26.5c-44 0 -82 -9.83301 -114 -29.5s-49.333 -47.167 -52 -82.5z" />
    <glyph glyph-name="T" unicode="T" horiz-adv-x="551" 
d="M1 709h538v-84h-227v-625h-84v625h-227v84z" />
    <glyph glyph-name="U" unicode="U" horiz-adv-x="684" 
d="M66 708h84v-495c0 -45.333 18.167 -80.333 54.5 -105s79.833 -37 130.5 -37c50 0 93.333 12.333 130 37s55 59.667 55 105v495h84v-495c0 -70.667 -26.667 -126 -80 -166s-116.333 -60 -189 -60s-135.667 20 -189 60s-80 95.333 -80 166v495z" />
    <glyph glyph-name="V" unicode="V" horiz-adv-x="607" 
d="M347 1h-103l-255 708h89l218 -613l217 613h88z" />
    <glyph glyph-name="W" unicode="W" horiz-adv-x="924" 
d="M489 619l162 -518l171 607h86l-205 -708h-102l-149 471l-150 -471h-102l-205 708h87l170 -608l163 519h74z" />
    <glyph glyph-name="X" unicode="X" horiz-adv-x="589" 
d="M577 708l-242 -355l243 -353h-102l-191 284l-191 -284h-102l243 353l-241 355h100l191 -280l191 280h101z" />
    <glyph glyph-name="Y" unicode="Y" horiz-adv-x="572" 
d="M569 708l-247 -432v-276h-84v276l-246 432h97l192 -343l190 343h98z" />
    <glyph glyph-name="Z" unicode="Z" horiz-adv-x="563" 
d="M424 624h-395v84h490l27 -58l-414 -566h402v-84h-500l-24 59z" />
    <glyph glyph-name="bracketleft" unicode="[" horiz-adv-x="256" 
d="M230 743v-75h-86v-719h86v-75h-169v869h169z" />
    <glyph glyph-name="backslash" unicode="\" horiz-adv-x="370" 
d="M67 736l298 -747l-76 -26l-297 747z" />
    <glyph glyph-name="bracketright" unicode="]" horiz-adv-x="254" 
d="M15 -125v72h85v725h-85v72h169v-869h-169z" />
    <glyph glyph-name="asciicircum" unicode="^" horiz-adv-x="594" 
d="M53 417l209 281h57l215 -281h-98l-145 190l-139 -190h-99z" />
    <glyph glyph-name="underscore" unicode="_" horiz-adv-x="500" 
d="M-7 -83v80h501v-80h-501z" />
    <glyph glyph-name="grave" unicode="`" horiz-adv-x="210" 
d="M90 698l93 -150h-85l-119 150h111z" />
    <glyph glyph-name="a" unicode="a" horiz-adv-x="505" 
d="M355 358c0 28.667 -12.001 50.668 -36.001 66.001s-52.667 23 -86 23c-52.667 0 -93.667 -18.667 -123 -56l-55 53c23.333 26 51.5 46 84.5 60s66.167 21 99.5 21c53.333 0 99.333 -14.667 138 -44s58 -70.333 58 -123v-335c-70 -24.667 -141.333 -36.334 -214 -35.001
c-53.333 0.666992 -97.5 17.167 -132.5 49.5s-52.5 75.5 -52.5 129.5c0.666992 58 20.5 100.333 59.5 127s87.833 40 146.5 40c40.667 0 78.334 -10 113.001 -30v54zM354.999 69.001l0.00195312 167.001c-40.667 14 -79.334 21 -116.001 21c-82 0 -123.333 -30 -124 -90
c0 -32 10.167 -57.833 30.5 -77.5s46.166 -29.834 77.499 -30.501c50.667 -1.33301 94.667 2 132 10z" />
    <glyph glyph-name="b" unicode="b" horiz-adv-x="511" 
d="M49 700h80.001v-205c32 21.333 72 32 120 32c54 0 101 -15.5 141 -46.5s60 -73.167 60 -126.5v-194c0 -54 -19.5 -95.833 -58.5 -125.5s-85.5 -45.167 -139.5 -46.5c-62.667 0 -130.334 12.333 -203.001 37v675zM129.001 424l0.000976562 -347
c32.667 -10 73.667 -15 123 -15c31.333 0 58.833 8.83301 82.5 26.5s35.167 41.5 34.5 71.5v195c0.666992 28.667 -10.833 51 -34.5 67s-51.834 24.333 -84.501 25c-40.667 0 -81 -7.66699 -121 -23z" />
    <glyph glyph-name="c" unicode="c" horiz-adv-x="458" 
d="M365 385l-7.00098 10c-8.66699 17.333 -23.667 30.333 -45 39s-44.333 13 -69 13c-32.667 0 -60.834 -8 -84.501 -24s-35.5 -39 -35.5 -69v-191c0 -28.667 11.833 -51 35.5 -67s51.834 -24 84.501 -24c28 0 53.333 7 76 21s37.667 34.333 45 61l73 -35
c-14 -40.667 -39.167 -72 -75.5 -94s-75.833 -33 -118.5 -33c-54 0 -100.833 15.167 -140.5 45.5s-59.5 72.833 -59.5 127.5v189c0 54.667 19.833 97.167 59.5 127.5s86.5 45.5 140.5 45.5c38 0 73.833 -8.83301 107.5 -26.5s59.834 -43.167 78.501 -76.5z" />
    <glyph glyph-name="d" unicode="d" horiz-adv-x="511" 
d="M448 700l0.000976562 -675c-72.667 -24.667 -140.334 -37 -203.001 -37c-54 1.33301 -100.5 16.833 -139.5 46.5s-58.5 71.5 -58.5 125.5v194c0 53.333 20 95.5 60 126.5s86.667 46.5 140 46.5c52.667 0 93 -10.667 121 -32v205h80zM245.001 59
c49.333 0 90.333 4.99902 123 14.999v349c-41.333 16 -81.666 24 -120.999 24c-32.667 -0.666992 -60.834 -9 -84.501 -25s-35.167 -38.667 -34.5 -68v-196c-0.666992 -29.333 10.833 -53.166 34.5 -71.499s51.167 -27.5 82.5 -27.5z" />
    <glyph glyph-name="e" unicode="e" horiz-adv-x="497" 
d="M369 358c0 28.667 -12.167 51 -36.5 67s-52.833 24 -85.5 24c-33.333 0 -61.833 -8 -85.5 -24s-35.167 -39 -34.5 -69v-72h242v74zM127 217v-56.999c-0.666992 -30 10.833 -53 34.5 -69s52.167 -24 85.5 -24c24.667 0 48 6.16699 70 18.5s38 29.833 48 52.5l72 -36
c-17.333 -36.667 -43.5 -64.834 -78.5 -84.501s-72.167 -29.5 -111.5 -29.5c-54 0 -101 15.167 -141 45.5s-60 72.5 -60 126.5v196c0 54.667 19.833 97 59.5 127s86.834 45 141.501 45c53.333 0 99.666 -15 138.999 -45s59 -72.333 59 -127v-139h-318z" />
    <glyph glyph-name="f" unicode="f" horiz-adv-x="268" 
d="M243 713v-78.001c-36 0 -63.833 -8.33301 -83.5 -25s-29.5 -40 -29.5 -70v-96h106v-80h-106v-364h-80v540c0 55.333 18 97.833 54 127.5s82.333 44.834 139 45.501z" />
    <glyph glyph-name="g" unicode="g" horiz-adv-x="501" 
d="M61 -100l53 47.999c10.667 -14 28 -25.833 52 -35.5s47.333 -14.5 70 -14.5c34 0 63.167 8 87.5 24s36.5 39 36.5 69v29c-28 -18 -67.333 -27 -118 -27c-53.333 -0.666992 -99.833 14.5 -139.5 45.5s-59.5 73.167 -59.5 126.5v192c0 53.333 19.333 95 58 125
s84.334 45 137.001 45c38.667 0 85 -7.33301 139 -22c3.33301 -0.666992 13 -3.66699 29 -9s27 -8.66602 33 -9.99902v-495c0 -54.667 -19.167 -96.167 -57.5 -124.5s-84.5 -42.5 -138.5 -42.5c-74.667 0 -135.334 25.333 -182.001 76zM360 90.999l0.000976562 338
c-42 16 -82.667 24 -122 24c-31.333 0 -58.5 -8.66699 -81.5 -26s-34.167 -40.666 -33.5 -69.999v-194c-0.666992 -28.667 10.666 -51.334 33.999 -68.001s51 -25.667 83 -27c42 1.33301 82 9 120 23z" />
    <glyph glyph-name="h" unicode="h" horiz-adv-x="528" 
d="M59 698l79.999 -0.00292969v-210c34.667 20 74.334 30 119.001 30c53.333 1.33301 99.833 -13.667 139.5 -45s59.5 -73.666 59.5 -126.999v-346h-79v347c0 28.667 -11.667 50.834 -35 66.501s-51.333 23.834 -84 24.501c-43.333 0 -83.333 -7.33301 -120 -22v-416h-80
v698z" />
    <glyph glyph-name="i" unicode="i" horiz-adv-x="226" 
d="M47 649c0 16 5.5 29.333 16.5 40s24.167 16 39.5 16c16 0 29.333 -5.33301 40 -16s16 -24 16 -40c0 -15.333 -5.33301 -28.5 -16 -39.5s-24 -16.5 -40 -16.5c-15.333 0 -28.5 5.5 -39.5 16.5s-16.5 24.167 -16.5 39.5zM145 521h-80v-521h80v521z" />
    <glyph glyph-name="j" unicode="j" horiz-adv-x="220" 
d="M50 643c0 16 5.5 29.333 16.5 40s24.167 16 39.5 16c16 0 29.333 -5.33301 40 -16s16 -24 16 -40c0 -15.333 -5.33301 -28.5 -16 -39.5s-24 -16.5 -40 -16.5c-15.333 0 -28.5 5.5 -39.5 16.5s-16.5 24.167 -16.5 39.5zM-29 -98v-80c56 0 99.333 14.833 130 44.5
s46 71.167 46 124.5v528h-80v-528c0 -59.333 -32 -89 -96 -89z" />
    <glyph glyph-name="k" unicode="k" horiz-adv-x="472" 
d="M58 698h80v-420l240 240h104l-234 -236l229 -282h-101l-184 225l-54 -54v-171h-80v698z" />
    <glyph glyph-name="l" unicode="l" horiz-adv-x="253" 
d="M235 76v-80c-56 0 -99.333 14.833 -130 44.5s-46 71.167 -46 124.5v534h80v-534c0 -59.333 32 -89 96 -89z" />
    <glyph glyph-name="m" unicode="m" horiz-adv-x="822" 
d="M65 -2l0.000976562 471c58 31.333 116.667 47 176 47c65.333 0 117.333 -19.667 156 -59c34.667 35.333 82 54.333 142 57c56 2 103 -11.833 141 -41.5s57 -72.834 57 -129.501v-345h-80v343c0.666992 34 -10 58.333 -32 73s-49.667 21.667 -83 21
c-26.667 -0.666992 -50.834 -7.66699 -72.501 -21s-32.5 -31.333 -32.5 -54v-362h-78v362c0 28 -14 49 -42 63s-59 19.833 -93 17.5s-60.333 -10.166 -79 -23.499v-419h-80z" />
    <glyph glyph-name="n" unicode="n" horiz-adv-x="532" 
d="M60 0l0.000976562 475.001c82 28.667 149.333 43 202 43c54 -1.33301 100 -16.5 138 -45.5s57 -70.5 57 -124.5v-348h-79v348c0 29.333 -11.667 52.166 -35 68.499s-50.333 24.5 -81 24.5c-40.667 0 -81.334 -7.66699 -122.001 -23v-418h-80z" />
    <glyph glyph-name="o" unicode="o" horiz-adv-x="513" 
d="M252 451c-32.667 0 -61 -8 -85 -24s-36 -39 -36 -69v-195c0 -30 12.167 -53.167 36.5 -69.5s52.5 -24.5 84.5 -24.5c31.333 0 59 8.16699 83 24.5s36 39.5 36 69.5v195c0 30 -12 53 -36 69s-51.667 24 -83 24zM51 358c0 54 19.833 96.167 59.5 126.5
s86.834 45.833 141.501 46.5c54 -0.666992 100.667 -16.167 140 -46.5s59 -72.5 59 -126.5v-195c0 -54.667 -19.667 -97 -59 -127s-86 -45.333 -140 -46c-54.667 0.666992 -101.834 16 -141.501 46s-59.5 72.333 -59.5 127v195z" />
    <glyph glyph-name="p" unicode="p" horiz-adv-x="505" 
d="M50 -181v671.002c76 24.667 143.667 37 203 37c54 -0.666992 100.5 -15.834 139.5 -45.501s58.5 -71.834 58.5 -126.501v-191c0 -54 -20 -96.5 -60 -127.5s-87 -46.167 -141 -45.5c-51.333 0 -91.333 9.33301 -120 28v-200h-80zM130 439.002v-345.999
c41.333 -15.333 81.666 -23 120.999 -23c32.667 0.666992 60.834 9.16699 84.501 25.5s35.167 39.166 34.5 68.499v193c0.666992 28.667 -10.833 51.5 -34.5 68.5s-51.167 25.5 -82.5 25.5c-54.667 0 -95.667 -4 -123 -12z" />
    <glyph glyph-name="q" unicode="q" horiz-adv-x="505" 
d="M443 -181l-80 -0.00195312v200c-27.333 -18.667 -67.333 -28 -120 -28c-54 -0.666992 -101 14.5 -141 45.5s-60 73.5 -60 127.5v191c0 54.667 19.5 96.834 58.5 126.501s85.5 44.834 139.5 45.501c59.333 0 127 -12.333 203 -37v-671zM363 92.998v345.999
c-27.333 8 -68.333 12 -123 12c-31.333 0 -58.833 -8.66699 -82.5 -26s-35.167 -40.666 -34.5 -69.999v-193c-0.666992 -28 10.833 -50.167 34.5 -66.5s51.834 -24.833 84.501 -25.5c39.333 0 79.666 7.66699 120.999 23z" />
    <glyph glyph-name="r" unicode="r" horiz-adv-x="313" 
d="M198 518c28.667 7.33301 59.002 7.66699 91.002 1v-82c-24.667 4 -38.334 6.16699 -41.001 6.5s-15.334 -1.16699 -38.001 -4.5c-22.667 -6 -41.667 -16.667 -57 -32s-23 -34.333 -23 -57v-350h-80v350c0 44.667 13.833 81.667 41.5 111s63.167 48.333 106.5 57z" />
    <glyph glyph-name="s" unicode="s" horiz-adv-x="426" 
d="M12 102l60.002 37c16.667 -24.667 38.5 -43.167 65.5 -55.5s54.5 -17.833 82.5 -16.5c26 0.666992 48.667 7.5 68 20.5s28.666 31.833 27.999 56.5c0 17.333 -5.83301 31.833 -17.5 43.5s-23.834 19.5 -36.501 23.5s-29 8 -49 12h1c-26 4.66699 -47.833 9.66699 -65.5 15
s-36.334 13.5 -56.001 24.5s-34.667 25.833 -45 44.5s-15.5 41.334 -15.5 68.001c0 50 19 87.5 57 112.5s81.667 37.5 131 37.5c62 0 114 -20.667 156 -62l-52 -61c-29.333 30 -64 45 -104 45c-28.667 0 -54 -5.5 -76 -16.5s-33 -29.5 -33 -55.5
c0 -12.667 3.66699 -23.5 11 -32.5s18 -16.333 32 -22s26 -9.83398 36 -12.501s22.667 -5.33398 38 -8.00098c110.667 -20.667 166.334 -72.667 167.001 -156c0 -48 -17 -84.667 -51 -110s-75.333 -38.666 -124 -39.999c-92 -2 -161.333 34 -208 108z" />
    <glyph glyph-name="t" unicode="t" horiz-adv-x="275" 
d="M267 69v-68.998c-61.333 -8 -112 3.66699 -152 35s-60 75.666 -60 132.999v541h79v-191h106v-80h-106v-270c0 -32 12.333 -58.333 37 -79s56.667 -27.334 96 -20.001z" />
    <glyph glyph-name="u" unicode="u" horiz-adv-x="517" 
d="M452 519v-490c-72 -25.333 -139.333 -38 -202 -38c-53.333 0.666992 -99.333 16 -138 46s-58 72 -58 126v356h80v-358c0 -28.667 11.5 -51.5 34.5 -68.5s50.167 -25.833 81.5 -26.5c48 0 88.667 5.66699 122 17v436h80z" />
    <glyph glyph-name="v" unicode="v" horiz-adv-x="467" 
d="M204 174l23 -102h6l21 103l120 343h85l-183 -518h-95l-183 518h85z" />
    <glyph glyph-name="w" unicode="w" horiz-adv-x="712" 
d="M347 376l-92 -376h-96l-156 518h83l97 -324l19 -115h7l14 115l79 324h88l80 -324l16 -115h7l17 115l97 324h82l-155 -518h-96z" />
    <glyph glyph-name="x" unicode="x" horiz-adv-x="451" 
d="M346 518h98l-178 -259l178 -259h-98l-128 195l-129 -195h-98l179 259l-179 259h98l129 -196z" />
    <glyph glyph-name="y" unicode="y" horiz-adv-x="519" 
d="M66 -101l55.001 50c13.333 -16.667 31.666 -29.5 54.999 -38.5s47.333 -13.5 72 -13.5c34.667 0 64.667 8.33301 90 25s38 40.667 38 72v30c-22.667 -20 -64 -30.667 -124 -32c-54.667 -0.666992 -102.5 15.166 -143.5 47.499s-61.5 75.833 -61.5 130.5v348h82v-350
c-0.666992 -29.333 11 -52.166 35 -68.499s52.667 -24.833 86 -25.5c41.333 0 83.333 8.33301 126 25v419h80v-524c0 -56.667 -19.667 -100 -59 -130s-87 -45 -143 -45c-34.667 0 -69 7 -103 21s-62.333 33.667 -85 59z" />
    <glyph glyph-name="z" unicode="z" horiz-adv-x="438" 
d="M305 444h-281v74h352l42 -52l-308 -393h303v-73h-368l-43 51z" />
    <glyph glyph-name="braceleft" unicode="{" horiz-adv-x="287" 
d="M262 744l-0.000976562 -72h-48c-12 0 -19.333 -4.5 -22 -13.5s-4 -25.167 -4 -48.5v-152c0.666992 -63.333 -14.666 -113.333 -45.999 -150c31.333 -34.667 46.666 -84 45.999 -148v-155c0 -21.333 1.83301 -36.333 5.5 -45s11.834 -13 24.501 -13h44v-72h-61
c-30 0 -53.5 11.333 -70.5 34s-25.5 54 -25.5 94v138c0 88 -22.333 132 -67 132v72c44.667 0 67 44.333 67 133v138c0 40 8.5 71.333 25.5 94s40.5 34 70.5 34h61z" />
    <glyph glyph-name="bar" unicode="|" horiz-adv-x="222" 
d="M72 742h80v-911h-80v911z" />
    <glyph glyph-name="braceright" unicode="}" horiz-adv-x="275" 
d="M12 672l0.000976562 71.999h61c30 0 53.5 -11.333 70.5 -34s25.5 -54 25.5 -94v-138c0 -88.667 22.333 -133 67 -133v-72c-44.667 0 -67 -44 -67 -132v-138c0 -40 -8.5 -71.333 -25.5 -94s-40.5 -34 -70.5 -34h-61v72h43c13.333 0 21.833 4.33301 25.5 13
s5.5 23.667 5.5 45v155c-0.666992 64 14.333 114 45 150c-30.667 34 -45.667 83.333 -45 148v152c0 12 -0.166992 20.833 -0.5 26.5s-1.33301 11.834 -3 18.501s-4.33398 11.167 -8.00098 13.5s-8.5 3.5 -14.5 3.5h-48z" />
    <glyph glyph-name="asciitilde" unicode="~" horiz-adv-x="543" 
d="M433 379l50.001 -45.999c-32 -68.667 -76.667 -103 -134 -103c-26.667 0 -58 12.333 -94 37c-30.667 18.667 -52 28 -64 28c-23.333 0 -50 -23 -80 -69l-52 43c37.333 68.667 82.333 103 135 103c32 0 66.333 -13 103 -39c27.333 -17.333 45.666 -26 54.999 -26
c14.667 0 28 6.16699 40 18.5s25.667 30.166 41 53.499z" />
    <glyph glyph-name="uni00A0" unicode="&#xa0;" horiz-adv-x="260" 
 />
    <glyph glyph-name="exclamdown" unicode="&#xa1;" horiz-adv-x="278" 
d="M91 -211v522h83v-522h-83zM191 435c0 -16.667 -5.5 -30.667 -16.5 -42s-24.833 -17 -41.5 -17s-30.667 5.66699 -42 17s-17 25.333 -17 42s5.66699 30.5 17 41.5s25.333 16.5 42 16.5s30.5 -5.5 41.5 -16.5s16.5 -24.833 16.5 -41.5z" />
    <glyph glyph-name="cent" unicode="&#xa2;" horiz-adv-x="460" 
d="M425 420l-72.001 -29.998c-15.333 27.333 -43 44.333 -83 51v-361c48.667 8.66699 79 32.667 91 72l71 -30c-12 -33.333 -33.167 -60.833 -63.5 -82.5s-63.166 -35.167 -98.499 -40.5v-88h-70v89c-45.333 7.33301 -83.333 25.666 -114 54.999s-46 67.666 -46 114.999v180
c0 48.667 15 87.5 45 116.5s68.333 46.5 115 52.5v90h70v-88c69.333 -8 121 -41.667 155 -101zM119.999 168.002c-0.666992 -22.667 6.66797 -41.333 22.001 -56s34.666 -24.667 57.999 -30v356c-24 -4.66699 -43.5 -14.5 -58.5 -29.5s-22.167 -34.5 -21.5 -58.5v-182z" />
    <glyph glyph-name="sterling" unicode="&#xa3;" horiz-adv-x="493" 
d="M24 0l-0.00195312 75h98v252h-98v72h98v101c0 24.667 3.5 48.5 10.5 71.5s17.833 45.333 32.5 67s35.834 39 63.501 52s60.167 19.5 97.5 19.5c51.333 0 101 -21.667 149 -65l-59 -55c-28 28 -59 42 -93 42c-39.333 0 -69.166 -13.167 -89.499 -39.5
s-30.5 -54.833 -30.5 -85.5v-108h156v-72h-156v-252h260v-75h-439z" />
    <glyph glyph-name="currency" unicode="&#xa4;" horiz-adv-x="561" 
d="M25 149l53 52c-34 43.333 -51 92.666 -51 147.999s17 104.666 51 147.999l-53 52l51 55l55 -55c41.333 31.333 90 47 146 47c54.667 0 103.334 -15.667 146.001 -47l55 55l50 -55l-53 -52c34 -43.333 51 -92.666 51 -147.999s-17 -104.666 -51 -147.999l53 -52l-50 -55
l-55 55c-43.333 -31.333 -92 -47 -146 -47c-54.667 0 -103.334 15.667 -146.001 47l-28.5 -29c-13.667 -14 -22.5 -22.667 -26.5 -26zM105 348c0 -47.333 16.833 -87.666 50.5 -120.999s73.5 -50 119.5 -50c46.667 0 86.834 16.667 120.501 50s50.5 73.666 50.5 120.999
c0 48 -16.833 89 -50.5 123s-73.834 51 -120.501 51c-46 0 -85.833 -17 -119.5 -51s-50.5 -75 -50.5 -123z" />
    <glyph glyph-name="yen" unicode="&#xa5;" horiz-adv-x="526" 
d="M538 699l-217 -379h127l-15 -69h-139v-49h155l-15 -69h-140v-132h-82v132h-157l15 69h142v49h-154l15 69h112l-216 379h96l188 -346l188 346h97z" />
    <glyph glyph-name="brokenbar" unicode="&#xa6;" horiz-adv-x="213" 
d="M63 696h82v-358h-82v358zM63 222h82v-359h-82v359z" />
    <glyph glyph-name="section" unicode="&#xa7;" horiz-adv-x="493" 
d="M196 235l95 -45c43.333 28 65 55.333 65 82c0 31.333 -23.333 59 -70 83l-66 38c-55.333 -20.667 -83 -47.667 -83 -81c0 -20 4.83301 -35.5 14.5 -46.5s24.5 -21.5 44.5 -31.5v1zM35 -3l75.001 34.9971c10 -28 26.333 -49.667 49 -65s47.334 -23 74.001 -23
c27.333 0 52 7.5 74 22.5s33 34.833 33 59.5c0 15.333 -6.5 29.833 -19.5 43.5s-26.167 24.167 -39.5 31.5s-33.333 17 -60 29c-28 12.667 -49 22.834 -63 30.501s-30.833 18.834 -50.5 33.501s-33.834 31.5 -42.501 50.5s-13 40.833 -13 65.5c0 52 28.667 93.667 86 125
c-42 30.667 -63 70 -63 118c0 50 18.833 89.5 56.5 118.5s81.834 43.5 132.501 43.5c37.333 0 71.166 -8.83301 101.499 -26.5s52.5 -44.834 66.5 -81.501l-73 -40c-9.33301 22.667 -22.666 39.834 -39.999 51.501s-36.666 17.5 -57.999 17.5
c-26.667 0 -50.5 -7.5 -71.5 -22.5s-31.5 -35.167 -31.5 -60.5c0 -11.333 2.66699 -21.666 8 -30.999s14.666 -18.333 27.999 -27s24.666 -15.5 33.999 -20.5s24.333 -12.167 45 -21.5c22 -10 38.167 -17.667 48.5 -23s24.333 -13.833 42 -25.5
s30.834 -22.834 39.501 -33.501s16.5 -24.167 23.5 -40.5s10.5 -34.166 10.5 -53.499c0 -53.333 -24.333 -95.333 -73 -126c40 -32 60 -70.667 60 -116c0 -52.667 -18.667 -94.5 -56 -125.5s-82 -46.5 -134 -46.5c-44.667 0 -84.834 11.167 -120.501 33.5
s-61.834 55.833 -78.501 100.5z" />
    <glyph glyph-name="dieresis" unicode="&#xa8;" horiz-adv-x="281" 
d="M172 651c0 15.333 5 28 15 38s22.333 15 37 15s27 -5.16699 37 -15.5s15 -22.833 15 -37.5s-5 -27 -15 -37s-22.333 -15 -37 -15s-27 5 -37 15s-15 22.333 -15 37zM1 651c0 14.667 5 27.167 15 37.5s22.333 15.5 37 15.5s27 -5.16699 37 -15.5s15 -22.833 15 -37.5
s-5 -27 -15 -37s-22.333 -15 -37 -15s-27 5 -37 15s-15 22.333 -15 37z" />
    <glyph glyph-name="copyright" unicode="&#xa9;" horiz-adv-x="788" 
d="M25 349c0 100.667 35.833 186.834 107.5 258.501s158.167 107.5 259.5 107.5s187.666 -35.833 258.999 -107.5s107 -157.834 107 -258.501s-35.667 -186.834 -107 -258.501s-157.666 -107.5 -258.999 -107.5s-187.833 35.833 -259.5 107.5s-107.5 157.834 -107.5 258.501
zM102 349c0 -79.333 28.333 -147.5 85 -204.5s125 -85.5 205 -85.5c79.333 0 147.333 28.5 204 85.5s85 125.167 85 204.5c0 80 -28.333 148.333 -85 205s-124.667 85 -204 85c-80 0 -148.333 -28.333 -205 -85s-85 -125 -85 -205zM499 454l5.99902 -9.00293l61 36
c-18 30.667 -42.667 54.334 -74 71.001s-64.666 25 -99.999 25c-50 0 -93.667 -14.167 -131 -42.5s-56 -68.166 -56 -119.499v-140c0 -51.333 18.667 -91.166 56 -119.499s81 -42.5 131 -42.5c40 0 77 10 111 30s57.333 49.333 70 88l-68 33
c-6.66699 -24.667 -20.667 -43.667 -42 -57s-45 -20 -71 -20c-30.667 0 -57 7.5 -79 22.5s-33 36.167 -33 63.5v142c0 28 11 49.5 33 64.5s48.333 22.5 79 22.5c54 0 89.667 -16 107 -48z" />
    <glyph glyph-name="ordfeminine" unicode="&#xaa;" horiz-adv-x="333" 
d="M218 557v35.001c0 13.333 -6.66699 24.333 -20 33s-28.333 13 -45 13c-34 0 -62 -13.333 -84 -40l-49 46c40 44 85.667 66 137 66c38 0 70.667 -10.5 98 -31.5s41 -50.5 41 -88.5v-228c-50 -16.667 -100.333 -24.334 -151 -23.001
c-38.667 0.666992 -70.334 11.667 -95.001 33s-37 51.333 -37 90c0.666992 73.333 49.334 110 146.001 110c21.333 0 41 -5 59 -15zM218 412.001v93.001c-24 5.33301 -44.333 8 -61 8c-18.667 0 -34.167 -4.16699 -46.5 -12.5s-18.833 -21.166 -19.5 -38.499
c0 -16.667 5.16699 -29.834 15.5 -39.501s23.5 -14.834 39.5 -15.501c20 0 44 1.66699 72 5z" />
    <glyph glyph-name="guillemotleft" unicode="&#xab;" horiz-adv-x="431" 
d="M164 83l-142 210l142 211l69 -42l-116 -169l116 -169zM323 83l-141 210l141 211l69 -42l-115 -169l115 -169z" />
    <glyph glyph-name="logicalnot" unicode="&#xac;" horiz-adv-x="567" 
d="M435 161v165h-400v79h479v-244h-79z" />
    <glyph glyph-name="uni00AD" unicode="&#xad;" horiz-adv-x="333" 
d="M32 202v82h261v-82h-261z" />
    <glyph glyph-name="registered" unicode="&#xae;" horiz-adv-x="781" 
d="M321 297v-141.001h-72v391h150c47.333 0 83.333 -10.667 108 -32s37 -51.666 37 -90.999c0 -64 -29.667 -105 -89 -123l104 -144h-85l-102 140h-51zM321 478.999v-114h50c30 0 54 3.83301 72 11.5s27 23.5 27 47.5c0 18.667 -7.33301 32.5 -22 41.5s-32 13.5 -52 13.5
h-75zM19 348.999c0 100.667 35.833 186.834 107.5 258.501s157.834 107.5 258.501 107.5s186.834 -35.833 258.501 -107.5s107.5 -157.834 107.5 -258.501s-35.833 -186.834 -107.5 -258.501s-157.834 -107.5 -258.501 -107.5s-186.834 35.833 -258.501 107.5
s-107.5 157.834 -107.5 258.501zM99 348.999c0 -78.667 28 -145.834 84 -201.501s123.333 -83.5 202 -83.5s145.834 27.833 201.501 83.5s83.5 122.834 83.5 201.501s-27.833 146 -83.5 202s-122.834 84 -201.501 84c-79.333 0 -146.833 -27.833 -202.5 -83.5
s-83.5 -123.167 -83.5 -202.5z" />
    <glyph glyph-name="macron" unicode="&#xaf;" 
d="M255 689v-82h-277v82h277z" />
    <glyph glyph-name="degree" unicode="&#xb0;" horiz-adv-x="349" 
d="M169 426c-39.333 0 -72.666 13.6689 -99.999 41.002s-41 60.666 -41 99.999c0 38.667 13.667 71.667 41 99s60.666 41 99.999 41c38.667 0 71.667 -13.667 99 -41s41 -60.333 41 -99s-13.833 -71.834 -41.5 -99.501s-60.5 -41.5 -98.5 -41.5zM169 500.002
c18 0 33.5 6.5 46.5 19.5s19.5 28.5 19.5 46.5s-6.5 33.667 -19.5 47s-28.5 20 -46.5 20s-33.667 -6.66699 -47 -20s-20 -29 -20 -47s6.66699 -33.5 20 -46.5s29 -19.5 47 -19.5z" />
    <glyph glyph-name="plusminus" unicode="&#xb1;" horiz-adv-x="567" 
d="M61 360v80h173v165h81v-165h177v-80h-177v-166h-81v166h-173zM59 65v79h435v-79h-435z" />
    <glyph glyph-name="twosuperior" unicode="&#xb2;" horiz-adv-x="346" 
d="M258 468l-136.001 -124.001h192v-75h-286l-22 53l200 192c22 16 34 34 36 54s-4.83301 36.667 -20.5 50s-36.167 20 -61.5 20c-22.667 -0.666992 -42.667 -7.16699 -60 -19.5s-29.333 -25.5 -36 -39.5l-60 27c26 66.667 77.333 100 154 100
c31.333 0 60.833 -7.5 88.5 -22.5s47.834 -36.5 60.501 -64.5c4.66699 -14 7 -28 7 -42c0 -39.333 -19 -75.666 -57 -108.999h1z" />
    <glyph glyph-name="threesuperior" unicode="&#xb3;" horiz-adv-x="345" 
d="M307 582c0 -33.333 -16.334 -59 -49.001 -77c21.333 -8 38 -21 50 -39s18 -38 18 -60c-1.33301 -33.333 -12.333 -61.333 -33 -84c-32 -36 -77.333 -52.667 -136 -50c-29.333 1.33301 -57.166 9.33301 -83.499 24s-45.5 34.667 -57.5 60l-10 20l68 32l9 -20
c5.33301 -12.667 15.666 -22.667 30.999 -30s31.333 -11.666 48 -12.999c34 -2.66699 60.667 7.66602 80 30.999v-1c14 22.667 14.5 44.834 1.5 66.501s-34.5 31.5 -64.5 29.5h-44v57h44c20.667 1.33301 36.834 11.333 48.501 30s10.5 36.667 -3.5 54
c-12 14 -30.667 21 -56 21c-34.667 0 -59 -11.667 -73 -35l-7 -14l-65 28c12.667 32 31.667 55 57 69s52 21.667 80 23c20.667 0.666992 42 -2.66602 64 -9.99902c23.333 -8.66699 41 -19.334 53 -32.001c20 -22.667 30 -49.334 30 -80.001z" />
    <glyph glyph-name="acute" unicode="&#xb4;" horiz-adv-x="213" 
d="M17 558l93 150h111l-118 -150h-86z" />
    <glyph glyph-name="mu" unicode="&#xb5;" horiz-adv-x="502" 
d="M450 512l2 -514h-81l-1 48c-32 -38 -79.333 -57 -142 -57c-38 0 -70.667 11 -98 33v-238h-83v728h84v-318c0 -85.333 32.333 -128 97 -128c40 0 73 14.333 99 43s39 69.667 39 123v280h84z" />
    <glyph glyph-name="paragraph" unicode="&#xb6;" horiz-adv-x="551" 
d="M228 -120v372.001c-68 2.66699 -121.167 25.667 -159.5 69s-57.5 93.666 -57.5 150.999c0 61.333 21.5 114.333 64.5 159s103.167 67 180.5 67h229v-818h-82v746h-92v-746h-83z" />
    <glyph glyph-name="periodcentered" unicode="&#xb7;" horiz-adv-x="260" 
d="M68 315c0 16.667 5.66699 30.667 17 42s25.333 17 42 17s30.5 -5.66699 41.5 -17s16.5 -25.333 16.5 -42s-5.5 -30.667 -16.5 -42s-24.833 -17 -41.5 -17s-30.667 5.66699 -42 17s-17 25.333 -17 42z" />
    <glyph glyph-name="cedilla" unicode="&#xb8;" 
d="M168 27l-30.9971 -50.001c20.667 -1.33301 39 -9.66602 55 -24.999s23.667 -33.666 23 -54.999c-0.666992 -29.333 -11.667 -52 -33 -68s-45.666 -24 -72.999 -24c-24.667 0 -55.334 8.33301 -92.001 25l21 56c24.667 -12.667 47.667 -19 69 -19
c15.333 0 26.666 4.16699 33.999 12.5s8.16602 16.666 2.49902 24.999s-16.834 12.5 -33.501 12.5c-12.667 0 -25 -3 -37 -9l-26 27l58 92h63z" />
    <glyph glyph-name="onesuperior" unicode="&#xb9;" horiz-adv-x="282" 
d="M128 274v317l-43 -58l-56 45l108 125h65v-429h-74z" />
    <glyph glyph-name="ordmasculine" unicode="&#xba;" horiz-adv-x="373" 
d="M183 332c-42 0 -78.833 11.667 -110.5 35s-47.5 55.666 -47.5 96.999v110c0 41.333 15.833 73.666 47.5 96.999s68.5 35 110.5 35c42.667 0 79.834 -11.667 111.501 -35s47.5 -55.666 47.5 -96.999v-110c0 -41.333 -15.833 -73.666 -47.5 -96.999
s-68.834 -35 -111.501 -35zM100 574v-110c0 -20 8.16699 -34.667 24.5 -44s35.833 -14 58.5 -14s42.334 4.66699 59.001 14s25 24 25 44v110c0 20 -8.33301 34.667 -25 44s-36.334 14 -59.001 14s-42.167 -4.66699 -58.5 -14s-24.5 -24 -24.5 -44z" />
    <glyph glyph-name="guillemotright" unicode="&#xbb;" horiz-adv-x="430" 
d="M261 504l141 -211l-141 -210l-69 40l115 170l-115 169zM97 504l142 -211l-142 -210l-69 40l116 170l-116 169z" />
    <glyph glyph-name="onequarter" unicode="&#xbc;" horiz-adv-x="724" 
d="M84 3l446 732l67 -40l-447 -732zM118 591v-317h74v429h-65l-108 -125l56 -45zM645 171v275h-71l-236 -285l42 -61h190v-102h75v102h39v71h-39zM570 171h-131l134 165z" />
    <glyph glyph-name="onehalf" unicode="&#xbd;" horiz-adv-x="774" 
d="M72 3l446 732l66 -40l-447 -732zM118 591v-317h74v429h-65l-108 -125l56 -45zM544 75l136 124.001h-1c38 33.333 57 69.666 57 108.999c0 14 -2.33301 28 -7 42c-12.667 28 -32.667 49.5 -60 64.5s-57 22.5 -89 22.5c-76.667 0 -128 -33.333 -154 -100l60 -27
c6.66699 14 18.667 27.167 36 39.5s37.333 18.833 60 19.5c25.333 0 45.833 -6.66699 61.5 -20s22.5 -30 20.5 -50s-14 -38 -36 -54l-200 -192l22 -53h286v75h-192z" />
    <glyph glyph-name="threequarters" unicode="&#xbe;" horiz-adv-x="783" 
d="M152 3l446 732l66 -40l-447 -732zM307 582c0 30.667 -9.99902 57.334 -29.999 80.001c-12 12.667 -29.667 23.334 -53 32.001c-22 7.33301 -43.333 10.666 -64 9.99902c-28 -1.33301 -54.667 -9 -80 -23s-44.333 -37 -57 -69l65 -28l7 14c14 23.333 38.333 35 73 35
c25.333 0 44 -7 56 -21c14 -17.333 15.167 -35.333 3.5 -54s-27.834 -28.667 -48.501 -30h-44v-57h44c30 2 51.5 -7.83301 64.5 -29.5s12.5 -43.834 -1.5 -66.501v1c-19.333 -23.333 -46 -33.666 -80 -30.999c-16.667 1.33301 -32.667 5.66602 -48 12.999
s-25.666 17.333 -30.999 30l-12 20l-65 -32l10 -20c12 -25.333 31.167 -45.333 57.5 -60s54.166 -22.667 83.499 -24c58.667 -2.66699 104 14 136 50c20.667 22.667 31.667 50.667 33 84c0 22 -6 42 -18 60s-28.667 31 -50 39c32.667 18 49 43.667 49 77zM714.001 171v275
h-71l-236 -285l42 -61h190v-102h75v102h39v71h-39zM639.001 171h-131l134 165z" />
    <glyph glyph-name="questiondown" unicode="&#xbf;" horiz-adv-x="465" 
d="M441 -99l9 11l-63 49c-36.667 -44.667 -83.334 -67 -140.001 -67c-40 0 -74.5 10.833 -103.5 32.5s-43.833 52.5 -44.5 92.5c-0.666992 44 18.833 79.333 58.5 106s86.834 40.334 141.501 41.001l-6 209h-71c-0.666992 -16 -1.83398 -39 -3.50098 -69
s-2.83398 -53.667 -3.50098 -71c-57.333 -11.333 -104.333 -34.5 -141 -69.5s-55.334 -83.5 -56.001 -145.5c-0.666992 -64.667 21.333 -115.334 66 -152.001s98.334 -55 161.001 -55c38.667 0 75.334 7.66699 110.001 23s63.334 37 86.001 65zM311 473
c0 -15.333 -5.16699 -28.166 -15.5 -38.499s-23.166 -15.5 -38.499 -15.5s-28.166 5.16699 -38.499 15.5s-15.5 23.166 -15.5 38.499s5.16699 28.166 15.5 38.499s23.166 15.5 38.499 15.5s28.166 -5.16699 38.499 -15.5s15.5 -23.166 15.5 -38.499z" />
    <glyph glyph-name="Agrave" unicode="&#xc0;" horiz-adv-x="619" 
d="M250 708l-254 -708h89l80 227h273l82 -227h88l-256 708h-102zM409 311h-216l108 307zM261 896l93 -150h-85l-119 150h111z" />
    <glyph glyph-name="Aacute" unicode="&#xc1;" horiz-adv-x="619" 
d="M262 745l95 152h112l-120 -152h-87zM-4 0l254 708h102l256 -708h-88l-82 227h-273l-80 -227h-89zM193 311h216l-108 300z" />
    <glyph glyph-name="Acircumflex" unicode="&#xc2;" horiz-adv-x="619" 
d="M250 708l-254 -708h89l80 227h273l82 -227h88l-256 708h-102zM409 311h-216l108 307zM136 734l127 139h76l127 -139h-98l-69 71l-65 -71h-98z" />
    <glyph glyph-name="Atilde" unicode="&#xc3;" horiz-adv-x="619" 
d="M250 708l-254 -708h89l80 227h273l82 -227h88l-256 708h-102zM409 311h-216l108 307zM218 737l-54.9971 19.999c5.33301 26.667 16.166 47.334 32.499 62.001s35.166 22 56.499 22c9.33301 0 23.666 -4.5 42.999 -13.5s34 -13.5 44 -13.5s19.333 9 28 27l57 -20
c-10 -52.667 -38 -79 -84 -79c-12 0 -28.333 4.5 -49 13.5s-35.667 13.5 -45 13.5c-12 0 -21.333 -10.667 -28 -32z" />
    <glyph glyph-name="Adieresis" unicode="&#xc4;" horiz-adv-x="619" 
d="M250 708l-254 -708h89l80 227h273l82 -227h88l-256 708h-102zM409 311h-216l108 307zM338 790c0 15.333 5 28 15 38s22.333 15 37 15s27 -5.16699 37 -15.5s15 -22.833 15 -37.5s-5 -27 -15 -37s-22.333 -15 -37 -15s-27 5 -37 15s-15 22.333 -15 37zM167 790
c0 14.667 5 27.167 15 37.5s22.333 15.5 37 15.5s27 -5.16699 37 -15.5s15 -22.833 15 -37.5s-5 -27 -15 -37s-22.333 -15 -37 -15s-27 5 -37 15s-15 22.333 -15 37z" />
    <glyph glyph-name="Aring" unicode="&#xc5;" horiz-adv-x="619" 
d="M250 708l-254 -708h89l80 227h273l82 -227h88l-256 708h-102zM409 311h-216l108 307zM199 829c0 28 10 52.168 30 72.501s44.333 30.5 73 30.5c28 0 51.667 -10.5 71 -31.5s29 -45.167 29 -72.5c0 -26.667 -9.83301 -50.334 -29.5 -71.001s-43.167 -31 -70.5 -31
c-28.667 0 -53 10.167 -73 30.5s-30 44.5 -30 72.5zM334 829.001c0 9.33301 -3.16699 17.5 -9.5 24.5s-14.166 10.5 -23.499 10.5s-17.166 -3.5 -23.499 -10.5s-9.5 -15.5 -9.5 -25.5c0 -9.33301 3.16699 -17.333 9.5 -24s14.166 -10 23.499 -10s17.166 3.5 23.499 10.5
s9.5 15.167 9.5 24.5z" />
    <glyph glyph-name="AE" unicode="&#xc6;" horiz-adv-x="822" 
d="M367 708h406v-84h-290v-229h261v-83h-261v-230h290v-82h-374v227h-184l-113 -227h-96zM404 625l-154 -322h149z" />
    <glyph glyph-name="Ccedilla" unicode="&#xc7;" horiz-adv-x="576" 
d="M38 494c0 69.333 26.8311 123.499 80.498 162.499s116.834 58.5 189.501 58.5c54 0 103.833 -12.167 149.5 -36.5s79.167 -59.5 100.5 -105.5l-75 -38c-16 30.667 -40.333 54.334 -73 71.001s-67.667 25 -105 25c-49.333 0 -92.166 -12 -128.499 -36
s-54.5 -57.667 -54.5 -101v-280c0 -43.333 18.167 -77 54.5 -101s79.166 -36 128.499 -36c38 0 73.333 8.16699 106 24.5s56.667 39.833 72 70.5l75 -35c-21.333 -45.333 -55 -80.333 -101 -105s-95.333 -37.667 -148 -39c0 -4.66699 -3.66699 -11.667 -11 -21
c21.333 -1.33301 40 -10.166 56 -26.499s23.667 -35.166 23 -56.499c-0.666992 -28.667 -11.667 -50.334 -33 -65.001s-46 -22 -74 -22c-23.333 0 -54.333 9 -93 27l23 59c22.667 -12.667 45.334 -19 68.001 -19c24 0 36 7 36 21c0 13.333 -11.667 20 -35 20
c-12.667 0 -25 -3.33301 -37 -10l-27 27l40 70c-60 9.33301 -109.5 32.666 -148.5 69.999s-58.5 86.333 -58.5 147v280z" />
    <glyph glyph-name="Egrave" unicode="&#xc8;" horiz-adv-x="572" 
d="M522 709v-84h-370v-229h341v-84h-341v-228h370v-84h-454v709h454zM259 894l94 -152h-86l-120 152h112z" />
    <glyph glyph-name="Eacute" unicode="&#xc9;" horiz-adv-x="572" 
d="M522 709v-84h-370v-229h341v-84h-341v-228h370v-84h-454v709h454zM248 746l93 150h111l-118 -150h-86z" />
    <glyph glyph-name="Ecircumflex" unicode="&#xca;" horiz-adv-x="572" 
d="M522 709v-84h-370v-229h341v-84h-341v-228h370v-84h-454v709h454zM134 742l129 141h77l128 -141h-99l-70 72l-65 -72h-100z" />
    <glyph glyph-name="Edieresis" unicode="&#xcb;" horiz-adv-x="572" 
d="M522 709v-84h-370v-229h341v-84h-341v-228h370v-84h-454v709h454zM340 795c0 14.667 5 27.167 15 37.5s22.333 15.5 37 15.5s27.167 -5 37.5 -15s15.5 -22.667 15.5 -38s-5.16699 -28 -15.5 -38s-22.833 -15 -37.5 -15s-27 5.16699 -37 15.5s-15 22.833 -15 37.5z
M166 795c0 15.333 5 28 15 38s22.667 15 38 15s28 -5 38 -15s15 -22.667 15 -38s-5 -28 -15 -38s-22.667 -15 -38 -15s-28 5 -38 15s-15 22.667 -15 38z" />
    <glyph glyph-name="Igrave" unicode="&#xcc;" horiz-adv-x="232" 
d="M65 0v708h83v-708h-83zM53 895l95 -152h-87l-120 152h112z" />
    <glyph glyph-name="Iacute" unicode="&#xcd;" horiz-adv-x="232" 
d="M66 0v708h83v-708h-83zM59 748l93 150h111l-118 -150h-86z" />
    <glyph glyph-name="Icircumflex" unicode="&#xce;" horiz-adv-x="232" 
d="M66 0v708h83v-708h-83zM-63 730l128 138h79l130 -138h-101l-70 70l-66 -70h-100z" />
    <glyph glyph-name="Idieresis" unicode="&#xcf;" horiz-adv-x="232" 
d="M66 0v708h83v-708h-83zM143 796c0 14.667 5 27.167 15 37.5s22.333 15.5 37 15.5c15.333 0 28 -5.16699 38 -15.5s15 -22.833 15 -37.5s-5.16699 -27.167 -15.5 -37.5s-22.833 -15.5 -37.5 -15.5s-27 5.16699 -37 15.5s-15 22.833 -15 37.5zM-31 796
c0 14.667 5.16699 27.167 15.5 37.5s22.833 15.5 37.5 15.5s27.167 -5.16699 37.5 -15.5s15.5 -22.833 15.5 -37.5s-5.16699 -27.167 -15.5 -37.5s-22.833 -15.5 -37.5 -15.5s-27.167 5.16699 -37.5 15.5s-15.5 22.833 -15.5 37.5z" />
    <glyph glyph-name="Eth" unicode="&#xd0;" horiz-adv-x="613" 
d="M1 311v78h60v319h241c74 0 137.167 -18 189.5 -54s78.5 -89 78.5 -159v-283c0 -47.333 -13.333 -87.5 -40 -120.5s-59.5 -56.5 -98.5 -70.5s-82.167 -21 -129.5 -21h-241v311h-60zM145 84l157 0.000976562c51.333 0 95 10.667 131 32s54 53.333 54 96v283
c0 43.333 -18 75.666 -54 96.999s-79.667 32 -131 32h-157v-235h120v-78h-120v-227z" />
    <glyph glyph-name="Ntilde" unicode="&#xd1;" horiz-adv-x="689" 
d="M69 708h90l364 -585v585h84v-708h-106l-348 561v-561h-84v708zM271 718l-56.001 20.001c6 27.333 17.167 48.166 33.5 62.499s35.5 21.5 57.5 21.5c18.667 0 37.334 -5 56.001 -15c11.333 -6.66699 22 -10 32 -10c10.667 0 20 8.66699 28 26l58 -21
c-10 -53.333 -38.333 -80 -85 -80c-20 0 -38.333 4.33301 -55 13c-17.333 8.66699 -31 13 -41 13c-12 0 -21.333 -10 -28 -30z" />
    <glyph glyph-name="Ograve" unicode="&#xd2;" horiz-adv-x="682" 
d="M51 503c0 70 28 124.499 84 163.499s122.333 58.5 199 58.5c48.667 0 94 -8 136 -24s77 -41.167 105 -75.5s42 -75.166 42 -122.499v-297c0 -47.333 -14 -88.333 -42 -123s-63 -60 -105 -76s-87.333 -24 -136 -24c-76.667 0 -143 19.667 -199 59s-84 94 -84 164v297z
M134 502.999l-0.000976562 -296.999c0 -44 19.667 -78.333 59 -103s86.333 -37 141 -37c54 0 100.667 12.333 140 37s59.333 59 60 103v297c0 46 -19.667 80.833 -59 104.5s-86.666 35.5 -141.999 35.5c-54.667 -0.666992 -101.5 -12.834 -140.5 -36.501
s-58.5 -58.167 -58.5 -103.5zM288.999 891l87 -141h-86l-114 141h113z" />
    <glyph glyph-name="Oacute" unicode="&#xd3;" horiz-adv-x="682" 
d="M51 503c0 70 28 124.499 84 163.499s122.333 58.5 199 58.5c48.667 0 94 -8 136 -24s77 -41.167 105 -75.5s42 -75.166 42 -122.499v-297c0 -47.333 -14 -88.333 -42 -123s-63 -60 -105 -76s-87.333 -24 -136 -24c-76.667 0 -143 19.667 -199 59s-84 94 -84 164v297z
M134 502.999l-0.000976562 -296.999c0 -44 19.667 -78.333 59 -103s86.333 -37 141 -37c54 0 100.667 12.333 140 37s59.333 59 60 103v297c0 46 -19.667 80.833 -59 104.5s-86.666 35.5 -141.999 35.5c-54.667 -0.666992 -101.5 -12.834 -140.5 -36.501
s-58.5 -58.167 -58.5 -103.5zM295.999 748l93 150h111l-118 -150h-86z" />
    <glyph glyph-name="Ocircumflex" unicode="&#xd4;" horiz-adv-x="682" 
d="M51 503c0 70 28 124.499 84 163.499s122.333 58.5 199 58.5c48.667 0 94 -8 136 -24s77 -41.167 105 -75.5s42 -75.166 42 -122.499v-297c0 -47.333 -14 -88.333 -42 -123s-63 -60 -105 -76s-87.333 -24 -136 -24c-76.667 0 -143 19.667 -199 59s-84 94 -84 164v297z
M134 502.999l-0.000976562 -296.999c0 -44 19.667 -78.333 59 -103s86.333 -37 141 -37c54 0 100.667 12.333 140 37s59.333 59 60 103v297c0 46 -19.667 80.833 -59 104.5s-86.666 35.5 -141.999 35.5c-54.667 -0.666992 -101.5 -12.834 -140.5 -36.501
s-58.5 -58.167 -58.5 -103.5zM163.999 745l129 141.999h77l129 -142h-99l-70 73c-38 -41.333 -60 -65.666 -66 -72.999h-100z" />
    <glyph glyph-name="Otilde" unicode="&#xd5;" horiz-adv-x="682" 
d="M51 503c0 70 28 124.499 84 163.499s122.333 58.5 199 58.5c48.667 0 94 -8 136 -24s77 -41.167 105 -75.5s42 -75.166 42 -122.499v-297c0 -47.333 -14 -88.333 -42 -123s-63 -60 -105 -76s-87.333 -24 -136 -24c-76.667 0 -143 19.667 -199 59s-84 94 -84 164v297z
M134 502.999l-0.000976562 -296.999c0 -44 19.667 -78.333 59 -103s86.333 -37 141 -37c54 0 100.667 12.333 140 37s59.333 59 60 103v297c0 46 -19.667 80.833 -59 104.5s-86.666 35.5 -141.999 35.5c-54.667 -0.666992 -101.5 -12.834 -140.5 -36.501
s-58.5 -58.167 -58.5 -103.5zM254.999 751l-56 20c5.33301 27.333 16.166 48.333 32.499 63s35.5 22 57.5 22c16.667 0 35.667 -5 57 -15c11.333 -6.66699 22 -10 32 -10c10.667 0 20 8.66699 28 26l57 -21c-9.33301 -53.333 -37.333 -80 -84 -80
c-21.333 0 -39.666 4.33301 -54.999 13c-22 8.66699 -35.667 13 -41 13c-12.667 0 -22 -10.333 -28 -31z" />
    <glyph glyph-name="Odieresis" unicode="&#xd6;" horiz-adv-x="682" 
d="M51 503c0 70 28 124.499 84 163.499s122.333 58.5 199 58.5c48.667 0 94 -8 136 -24s77 -41.167 105 -75.5s42 -75.166 42 -122.499v-297c0 -47.333 -14 -88.333 -42 -123s-63 -60 -105 -76s-87.333 -24 -136 -24c-76.667 0 -143 19.667 -199 59s-84 94 -84 164v297z
M134 502.999l-0.000976562 -296.999c0 -44 19.667 -78.333 59 -103s86.333 -37 141 -37c54 0 100.667 12.333 140 37s59.333 59 60 103v297c0 46 -19.667 80.833 -59 104.5s-86.666 35.5 -141.999 35.5c-54.667 -0.666992 -101.5 -12.834 -140.5 -36.501
s-58.5 -58.167 -58.5 -103.5zM368.999 798c0 14.667 5.16699 27.167 15.5 37.5s22.833 15.5 37.5 15.5s27.167 -5.16699 37.5 -15.5s15.5 -22.833 15.5 -37.5s-5.16699 -27 -15.5 -37s-22.833 -15 -37.5 -15s-27.167 5 -37.5 15s-15.5 22.333 -15.5 37zM195.999 798
c0 14.667 5 27.167 15 37.5s22.667 15.5 38 15.5s28 -5.16699 38 -15.5s15 -22.833 15 -37.5s-5.16699 -27 -15.5 -37s-22.833 -15 -37.5 -15s-27.167 5 -37.5 15s-15.5 22.333 -15.5 37z" />
    <glyph glyph-name="multiply" unicode="&#xd7;" horiz-adv-x="478" 
d="M25 455l57 57l156 -156l152 153l56 -57l-150 -151l149 -149l-57 -58l-150 150l-154 -154l-56 58l152 152z" />
    <glyph glyph-name="Oslash" unicode="&#xd8;" horiz-adv-x="682" 
d="M51 503c0 70 28.002 124.5 84.002 163.5s122.333 58.5 199 58.5c32.667 0 66 -4 100 -12l28 72l76 -27l-30 -76c72.667 -39.333 109 -99 109 -179v-297c0 -47.333 -14 -88.333 -42 -123s-63 -60 -105 -76s-87.333 -24 -136 -24c-33.333 0 -66 4 -98 12
c-2.66699 -7.33301 -7.33398 -19.333 -14.001 -36s-11.334 -28.667 -14.001 -36l-76 27l28 76c-72.667 41.333 -109 101.333 -109 180v297zM134.002 503l-0.000976562 -296.999c0 -42 19.333 -76.333 58 -103l211 533c-19.333 4.66699 -42.666 7 -69.999 7
c-54.667 -0.666992 -101.5 -12.834 -140.5 -36.501s-58.5 -58.167 -58.5 -103.5zM534.001 503.001c0 44.667 -19 78.667 -57 102l-210 -532c19.333 -4.66699 41.666 -7 66.999 -7c53.333 0 99.833 12.333 139.5 37s59.834 59 60.501 103v297z" />
    <glyph glyph-name="Ugrave" unicode="&#xd9;" horiz-adv-x="684" 
d="M66 708h84v-495c0 -45.333 18.167 -80.333 54.5 -105s79.833 -37 130.5 -37c50 0 93.333 12.333 130 37s55 59.667 55 105v495h84v-495c0 -70.667 -26.667 -126 -80 -166s-116.333 -60 -189 -60s-135.667 20 -189 60s-80 95.333 -80 166v495zM303 870l94 -152h-87
l-120 152h113z" />
    <glyph glyph-name="Uacute" unicode="&#xda;" horiz-adv-x="684" 
d="M66 708h84v-495c0 -45.333 18.167 -80.333 54.5 -105s79.833 -37 130.5 -37c50 0 93.333 12.333 130 37s55 59.667 55 105v495h84v-495c0 -70.667 -26.667 -126 -80 -166s-116.333 -60 -189 -60s-135.667 20 -189 60s-80 95.333 -80 166v495zM276 720l93 150h111
l-118 -150h-86z" />
    <glyph glyph-name="Ucircumflex" unicode="&#xdb;" horiz-adv-x="684" 
d="M174 734l129 142h77l129 -142h-99l-71 73l-34.5 -39l-30.5 -34h-100zM66 708h84v-495c0 -45.333 18.167 -80.333 54.5 -105s79.833 -37 130.5 -37c50 0 93.333 12.333 130 37s55 59.667 55 105v495h84v-495c0 -70.667 -26.667 -126 -80 -166s-116.333 -60 -189 -60
s-135.667 20 -189 60s-80 95.333 -80 166v495z" />
    <glyph glyph-name="Udieresis" unicode="&#xdc;" horiz-adv-x="684" 
d="M66 708h84v-495c0 -46 18.167 -81.833 54.5 -107.5s79.833 -38.5 130.5 -38.5c50 0 93.333 12.833 130 38.5s55 61.5 55 107.5v495h84v-495c0 -70.667 -26.667 -126 -80 -166s-116.333 -60 -189 -60s-135.667 20 -189 60s-80 95.333 -80 166v495zM370 793
c0 15.333 5 28 15 38s22.667 15 38 15s28 -5 38 -15s15 -22.667 15 -38s-5 -28 -15 -38s-22.667 -15 -38 -15s-28 5 -38 15s-15 22.667 -15 38zM197 793c0 15.333 5.16699 28 15.5 38s22.833 15 37.5 15s27.167 -5 37.5 -15s15.5 -22.667 15.5 -38s-5.16699 -28 -15.5 -38
s-22.833 -15 -37.5 -15s-27.167 5 -37.5 15s-15.5 22.667 -15.5 38z" />
    <glyph glyph-name="Yacute" unicode="&#xdd;" horiz-adv-x="563" 
d="M569 708l-247 -432v-276h-84v276l-246 432h97l192 -343l190 343h98zM222 720l93 150h111l-118 -150h-86z" />
    <glyph glyph-name="Thorn" unicode="&#xde;" horiz-adv-x="549" 
d="M152 715v-131.999c32 2.66699 57.667 4 77 4c91.333 0 161 -19 209 -57s72 -93 72 -165c0 -40.667 -8.33301 -76 -25 -106s-39.334 -53 -68.001 -69s-59.5 -27.667 -92.5 -35s-68.833 -11 -107.5 -11h-39l7 83h29c26.667 0 51.5 2 74.5 6s45.333 10.833 67 20.5
s38.667 24 51 43s18.5 41.833 18.5 68.5c0 27.333 -6.16699 50.666 -18.5 69.999s-29 33.5 -50 42.5s-42 15.5 -63 19.5s-43.833 6 -68.5 6c-23.333 0 -47.666 -1.66699 -72.999 -5v-497h-85v714h85z" />
    <glyph glyph-name="germandbls" unicode="&#xdf;" horiz-adv-x="592" 
d="M286 83c49.333 -1.33301 91.668 9.33203 127.001 31.999s53 55.334 53 98.001c0 44 -14.167 76.833 -42.5 98.5s-65.833 32.167 -112.5 31.5h-101v80h101c35.333 0 65 10 89 30s36 48.333 36 85s-14 63.834 -42 81.501s-61.667 26.5 -101 26.5
c-38.667 0 -72.334 -9.66699 -101.001 -29s-43 -47.666 -43 -84.999v-533h-81v533c0 60 22.5 107.333 67.5 142s97.5 52 157.5 52c60.667 0 113.5 -16.5 158.5 -49.5s67.5 -79.167 67.5 -138.5c0 -66 -21.333 -115.667 -64 -149c63.333 -30 95 -88.667 95 -176
c-1.33301 -68.667 -27.833 -121.834 -79.5 -159.501s-112.834 -55.834 -183.501 -54.501c-32 0.666992 -64.333 9 -97 25l1 89c38.667 -20 70.334 -30 95.001 -30z" />
    <glyph glyph-name="agrave" unicode="&#xe0;" horiz-adv-x="505" 
d="M355 358l0.000976562 -54.001c-34.667 20 -72.334 30 -113.001 30c-58.667 0 -107.5 -13.333 -146.5 -40s-58.833 -69 -59.5 -127c0 -54 17.5 -97.167 52.5 -129.5s79.167 -48.833 132.5 -49.5c72.667 -1.33301 144 10.334 214 35.001v335
c0 52.667 -19.333 93.667 -58 123s-84.667 44 -138 44c-33.333 0 -66.5 -7 -99.5 -21s-61.167 -34 -84.5 -60l55 -53c29.333 37.333 70.333 56 123 56c33.333 0 62 -7.66699 86 -23s36 -37.333 36 -66zM355.001 235.999l-0.00195312 -167.001
c-37.333 -8 -81.333 -11.333 -132 -10c-31.333 0.666992 -57.166 10.834 -77.499 30.501s-30.5 45.5 -30.5 77.5c0.666992 60 42 90 124 90c36.667 0 75.334 -7 116.001 -21zM211.999 674.998l81 -131h-74l-104 131h97z" />
    <glyph glyph-name="aacute" unicode="&#xe1;" horiz-adv-x="505" 
d="M191 546l83 136h105l-110 -136h-78zM355 358c0 28.667 -12.001 50.668 -36.001 66.001s-52.667 23 -86 23c-52.667 0 -93.667 -18.667 -123 -56l-55 53c23.333 26 51.5 46 84.5 60s66.167 21 99.5 21c53.333 0 99.333 -14.667 138 -44s58 -70.333 58 -123v-335
c-70 -24.667 -141.333 -36.334 -214 -35.001c-53.333 0.666992 -97.5 17.167 -132.5 49.5s-52.5 75.5 -52.5 129.5c0.666992 58 20.834 101.667 60.501 131s88.167 44 145.5 44c41.333 0 79 -6.33301 113 -19v35zM354.999 72.001l0.00195312 172.001
c-40.667 14 -79.334 21 -116.001 21c-36 0 -65.5 -7.66699 -88.5 -23s-34.833 -40.333 -35.5 -75c0 -32 10.167 -57.333 30.5 -76s46.166 -28.334 77.499 -29.001c50.667 -1.33301 94.667 2 132 10z" />
    <glyph glyph-name="acircumflex" unicode="&#xe2;" horiz-adv-x="505" 
d="M355 358l0.000976562 -54.001c-34.667 20 -72.334 30 -113.001 30c-58.667 0 -107.5 -13.333 -146.5 -40s-58.833 -69 -59.5 -127c0 -54 17.5 -97.167 52.5 -129.5s79.167 -48.833 132.5 -49.5c72.667 -1.33301 144 10.334 214 35.001v335
c0 52.667 -19.333 93.667 -58 123s-84.667 44 -138 44c-33.333 0 -66.5 -7 -99.5 -21s-61.167 -34 -84.5 -60l55 -53c29.333 37.333 70.333 56 123 56c33.333 0 62 -7.66699 86 -23s36 -37.333 36 -66zM355.001 235.999l-0.00195312 -167.001
c-37.333 -8 -81.333 -11.333 -132 -10c-31.333 0.666992 -57.166 10.834 -77.499 30.501s-30.5 45.5 -30.5 77.5c0.666992 60 42 90 124 90c36.667 0 75.334 -7 116.001 -21zM103.999 537.998l111 120h66l110 -120h-85l-60 60c-6 -6.66699 -15.5 -16.667 -28.5 -30
s-22.5 -23.333 -28.5 -30h-85z" />
    <glyph glyph-name="atilde" unicode="&#xe3;" horiz-adv-x="505" 
d="M355 358l0.000976562 -54.001c-34.667 20 -72.334 30 -113.001 30c-58.667 0 -107.5 -13.333 -146.5 -40s-58.833 -69 -59.5 -127c0 -54 17.5 -97.167 52.5 -129.5s79.167 -48.833 132.5 -49.5c72.667 -1.33301 144 10.334 214 35.001v335
c0 52.667 -19.333 93.667 -58 123s-84.667 44 -138 44c-33.333 0 -66.5 -7 -99.5 -21s-61.167 -34 -84.5 -60l55 -53c29.333 37.333 70.333 56 123 56c33.333 0 62 -7.66699 86 -23s36 -37.333 36 -66zM355.001 235.999l-0.00195312 -167.001
c-37.333 -8 -81.333 -11.333 -132 -10c-31.333 0.666992 -57.166 10.834 -77.499 30.501s-30.5 45.5 -30.5 77.5c0.666992 60 42 90 124 90c36.667 0 75.334 -7 116.001 -21zM175.999 546.998l-50 18c4.66699 24.667 14.334 43.5 29.001 56.5s31.667 19.5 51 19.5
c8.66699 0 21.667 -4 39 -12s30.666 -12 39.999 -12s17.666 8 24.999 24l51 -18c-9.33301 -47.333 -34.666 -71 -75.999 -71c-10 0 -24.333 4 -43 12s-32.334 12 -41.001 12c-11.333 0 -19.666 -9.66699 -24.999 -29z" />
    <glyph glyph-name="adieresis" unicode="&#xe4;" horiz-adv-x="505" 
d="M355 358l0.000976562 -54.001c-34.667 20 -72.334 30 -113.001 30c-58.667 0 -107.5 -13.333 -146.5 -40s-58.833 -69 -59.5 -127c0 -54 17.5 -97.167 52.5 -129.5s79.167 -48.833 132.5 -49.5c72.667 -1.33301 144 10.334 214 35.001v335
c0 52.667 -19.333 93.667 -58 123s-84.667 44 -138 44c-33.333 0 -66.5 -7 -99.5 -21s-61.167 -34 -84.5 -60l55 -53c29.333 37.333 70.333 56 123 56c33.333 0 62 -7.66699 86 -23s36 -37.333 36 -66zM355.001 235.999l-0.00195312 -167.001
c-37.333 -8 -81.333 -11.333 -132 -10c-31.333 0.666992 -57.166 10.834 -77.499 30.501s-30.5 45.5 -30.5 77.5c0.666992 60 42 90 124 90c36.667 0 75.334 -7 116.001 -21zM273.999 584.998c0 13.333 4.16699 24.168 12.5 32.501s18.833 12.5 31.5 12.5
s23.334 -4.33301 32.001 -13s13 -19.334 13 -32.001s-4.33301 -23.334 -13 -32.001s-19.334 -13 -32.001 -13s-23.167 4.33301 -31.5 13s-12.5 19.334 -12.5 32.001zM126.999 585c0 12.667 4.33301 23.334 13 32.001s19 13 31 13c12.667 0 23.334 -4.33301 32.001 -13
s13 -19.334 13 -32.001s-4.33301 -23.334 -13 -32.001s-19.334 -13 -32.001 -13c-12 0 -22.333 4.33301 -31 13s-13 19.334 -13 32.001z" />
    <glyph glyph-name="aring" unicode="&#xe5;" horiz-adv-x="505" 
d="M355 358l0.000976562 -54.001c-34.667 20 -72.334 30 -113.001 30c-58.667 0 -107.5 -13.333 -146.5 -40s-58.833 -69 -59.5 -127c0 -54 17.5 -97.167 52.5 -129.5s79.167 -48.833 132.5 -49.5c72.667 -1.33301 144 10.334 214 35.001v335
c0 52.667 -19.333 93.667 -58 123s-84.667 44 -138 44c-33.333 0 -66.5 -7 -99.5 -21s-61.167 -34 -84.5 -60l55 -53c29.333 37.333 70.333 56 123 56c33.333 0 62 -7.66699 86 -23s36 -37.333 36 -66zM355.001 235.999l-0.00195312 -167.001
c-37.333 -8 -81.333 -11.333 -132 -10c-31.333 0.666992 -57.166 10.834 -77.499 30.501s-30.5 45.5 -30.5 77.5c0.666992 60 42 90 124 90c36.667 0 75.334 -7 116.001 -21zM161.999 625.998c0 22.667 8.33301 42.332 25 58.999s36.334 25 59.001 25s42 -8.5 58 -25.5
s24 -36.833 24 -59.5c0 -22 -8 -41.333 -24 -58s-35.333 -25 -58 -25s-42.334 8.33301 -59.001 25s-25 36.334 -25 59.001zM272.999 625.996c0 7.33301 -2.66602 14 -7.99902 20s-11.666 9 -18.999 9c-8 0 -14.5 -3 -19.5 -9s-7.5 -13 -7.5 -21
c0 -7.33301 2.66699 -13.833 8 -19.5s11.666 -8.5 18.999 -8.5s13.666 2.83301 18.999 8.5s8 12.5 8 20.5z" />
    <glyph glyph-name="ae" unicode="&#xe6;" horiz-adv-x="817" 
d="M355 309l-0.000976562 51.001c0 28.667 -12 50.667 -36 66s-52.667 23 -86 23c-52.667 0 -93.667 -18.667 -123 -56l-55 53c48 54 109 81 183 81c32 0 63 -7.5 93 -22.5s52 -35.167 66 -60.5c14 27.333 35.5 47.833 64.5 61.5s59.833 20.5 92.5 20.5
c54 0 100.667 -15.167 140 -45.5s59 -72.833 59 -127.5v-132h-319v-61c0 -28.667 11.833 -51 35.5 -67s51.834 -24 84.501 -24c26 0 50 6 72 18s37.667 29.333 47 52l72 -35c-17.333 -36.667 -43.5 -64.834 -78.5 -84.501s-72.5 -29.5 -112.5 -29.5
c-60.667 0 -110.334 17.667 -149.001 53c-45.333 -35.333 -101.666 -53 -168.999 -53c-56 0 -103.333 14.833 -142 44.5s-58 73.167 -58 130.5c0 58.667 20.167 103 60.5 133s89.833 45 148.5 45c51.333 0 88 -11.333 110 -34zM363.999 103.001
c-6 16.667 -9.00098 36.333 -9.00098 59v83c-38.667 13.333 -76.334 20 -113.001 20s-66.667 -7.83301 -90 -23.5s-35.333 -41.167 -36 -76.5c0.666992 -32.667 12.334 -57 35.001 -73s51.334 -24 86.001 -24c46 0 88.333 11.667 127 35zM433.998 358l0.00195312 -68h240v65
c0 28.667 -11.833 51 -35.5 67s-51.834 24 -84.501 24c-32 0 -59.833 -7.66699 -83.5 -23s-35.834 -37 -36.501 -65z" />
    <glyph glyph-name="ccedilla" unicode="&#xe7;" horiz-adv-x="444" 
d="M257 -7l-9.99707 -19.001c20.667 -1.33301 38.667 -9.66602 54 -24.999s22.666 -34 21.999 -56c-0.666992 -28 -11.167 -48.833 -31.5 -62.5s-44.5 -20.5 -72.5 -20.5c-26.667 0 -57.334 8.33301 -92.001 25l21 55c23.333 -12 46.333 -18 69 -18c26 0 39 7.33301 39 22
c0 13.333 -12 20 -36 20c-10 0 -22.333 -3 -37 -9l-26 26l41 64c-45.333 8 -83.666 26.667 -114.999 56s-47 67.333 -47 114v189c0 54.667 19.833 97.167 59.5 127.5s86.5 45.5 140.5 45.5c38 0 73.833 -8.83301 107.5 -26.5s59.834 -43.167 78.501 -76.5l-68 -44
c-10.667 22 -26.834 38.667 -48.501 50s-44.834 17 -69.501 17c-32.667 0 -60.834 -8 -84.501 -24s-35.5 -38.333 -35.5 -67v-193c0 -28.667 11.833 -51 35.5 -67s51.834 -24 84.501 -24c28 0 53.333 7 76 21s37.667 34.333 45 61l73 -36
c-13.333 -36.667 -35.833 -65.667 -67.5 -87s-66.834 -34 -105.501 -38z" />
    <glyph glyph-name="egrave" unicode="&#xe8;" horiz-adv-x="493" 
d="M365 358v-74h-242v72c-0.666992 30 10.833 53 34.5 69s52.167 24 85.5 24c32.667 0 61.167 -8 85.5 -24s36.5 -38.333 36.5 -67zM123 160v56.999h318v139c0 54.667 -19.667 97 -59 127s-85.666 45 -138.999 45c-54.667 0 -101.834 -15 -141.501 -45
s-59.5 -72.333 -59.5 -127v-196c0 -54 20 -96.167 60 -126.5s87 -45.5 141 -45.5c39.333 0 76.5 9.83301 111.5 29.5s61.167 47.834 78.5 84.501l-72 36c-10 -22.667 -26 -40.167 -48 -52.5s-45.333 -18.5 -70 -18.5c-33.333 0 -61.833 8 -85.5 24s-35.167 39 -34.5 69z
M231 672.999l77 -125h-77l-101 125h101z" />
    <glyph glyph-name="eacute" unicode="&#xe9;" horiz-adv-x="493" 
d="M202 548l83 134h105l-110 -134h-78zM362 358c0 28.667 -11.833 51 -35.5 67s-51.5 24 -83.5 24c-33.333 0 -61.833 -8 -85.5 -24s-35.167 -39 -34.5 -69v-68h239v70zM123 215l-0.000976562 -54.999c-0.666992 -30 10.833 -53 34.5 -69s52.167 -24 85.5 -24
c24.667 0 48 6.16699 70 18.5s38 29.833 48 52.5l72 -36c-17.333 -36.667 -43.5 -64.834 -78.5 -84.501s-72.167 -29.5 -111.5 -29.5c-54 0 -101 15.167 -141 45.5s-60 72.5 -60 126.5v196c0 54.667 19.833 97 59.5 127s86.834 45 141.501 45c53.333 0 99.833 -15 139.5 -45
s59.5 -72.333 59.5 -127v-141h-319z" />
    <glyph glyph-name="ecircumflex" unicode="&#xea;" horiz-adv-x="493" 
d="M365 358v-74h-242v72c-0.666992 30 10.833 53 34.5 69s52.167 24 85.5 24c32.667 0 61.167 -8 85.5 -24s36.5 -38.333 36.5 -67zM123 160v56.999h318v139c0 54.667 -19.667 97 -59 127s-85.666 45 -138.999 45c-54.667 0 -101.834 -15 -141.501 -45
s-59.5 -72.333 -59.5 -127v-196c0 -54 20 -96.167 60 -126.5s87 -45.5 141 -45.5c39.333 0 76.5 9.83301 111.5 29.5s61.167 47.834 78.5 84.501l-72 36c-10 -22.667 -26 -40.167 -48 -52.5s-45.333 -18.5 -70 -18.5c-33.333 0 -61.833 8 -85.5 24s-35.167 39 -34.5 69z
M99 538.999l112 117.999h67l112 -118h-87l-61 57c-6.66699 -7.33301 -16.5 -17.166 -29.5 -29.499s-22.167 -21.5 -27.5 -27.5h-86z" />
    <glyph glyph-name="edieresis" unicode="&#xeb;" horiz-adv-x="493" 
d="M365 358v-74h-242v72c-0.666992 30 10.833 53 34.5 69s52.167 24 85.5 24c32.667 0 61.167 -8 85.5 -24s36.5 -38.333 36.5 -67zM123 160v56.999h318v139c0 54.667 -19.667 97 -59 127s-85.666 45 -138.999 45c-54.667 0 -101.834 -15 -141.501 -45
s-59.5 -72.333 -59.5 -127v-196c0 -54 20 -96.167 60 -126.5s87 -45.5 141 -45.5c39.333 0 76.5 9.83301 111.5 29.5s61.167 47.834 78.5 84.501l-72 36c-10 -22.667 -26 -40.167 -48 -52.5s-45.333 -18.5 -70 -18.5c-33.333 0 -61.833 8 -85.5 24s-35.167 39 -34.5 69z
M276 589.999c0 13.333 4.5 24.5 13.5 33.5s19.833 13.5 32.5 13.5s23.5 -4.5 32.5 -13.5s13.5 -20.167 13.5 -33.5s-4.33301 -24.333 -13 -33s-19.667 -13 -33 -13s-24.333 4.33301 -33 13s-13 19.667 -13 33zM126 589.999c0 13.333 4.5 24.5 13.5 33.5
s19.833 13.5 32.5 13.5s23.334 -4.5 32.001 -13.5s13 -20.167 13 -33.5c0 -12.667 -4.33301 -23.5 -13 -32.5s-19.334 -13.5 -32.001 -13.5c-13.333 0 -24.333 4.33301 -33 13s-13 19.667 -13 33z" />
    <glyph glyph-name="igrave" unicode="&#xec;" 
d="M70 638l83 -133h-78l-110 133h105zM74 0v481h84v-481h-84z" />
    <glyph glyph-name="iacute" unicode="&#xed;" 
d="M74 507l82 133h106l-110 -133h-78zM74 0v481h84v-481h-84z" />
    <glyph glyph-name="icircumflex" unicode="&#xee;" 
d="M-30 503l114 129h70l115 -129h-90l-63 64l-57 -64h-89zM74 0v481h84v-481h-84z" />
    <glyph glyph-name="idieresis" unicode="&#xef;" horiz-adv-x="239" 
d="M130 560c0 13.333 4.5 24.5 13.5 33.5s20.5 13.5 34.5 13.5c13.333 0 24.5 -4.5 33.5 -13.5s13.5 -20.167 13.5 -33.5c0 -14 -4.5 -25.5 -13.5 -34.5s-20.167 -13.5 -33.5 -13.5c-14 0 -25.5 4.5 -34.5 13.5s-13.5 20.5 -13.5 34.5zM9 560c0 13.333 4.5 24.5 13.5 33.5
s20.167 13.5 33.5 13.5s24.666 -4.5 33.999 -13.5s14 -20.167 14 -33.5c0 -14 -4.66699 -25.5 -14 -34.5s-20.666 -13.5 -33.999 -13.5s-24.5 4.5 -33.5 13.5s-13.5 20.5 -13.5 34.5zM75 0v479h84v-479h-84z" />
    <glyph glyph-name="eth" unicode="&#xf0;" horiz-adv-x="526" 
d="M133 576l-56 51c24 28 53.5 48.667 88.5 62s70.5 19 106.5 17l22 66l67 -23l-18 -57c74 -28.667 111 -80.334 111 -155.001v-501l-62 -19c-57.333 -15.333 -104 -23 -140 -23c-52 0.666992 -97.167 16 -135.5 46s-57.5 71.667 -57.5 125v144
c0 52.667 19.667 94.5 59 125.5s85.333 46.167 138 45.5c44.667 0 84.334 -7.33301 119.001 -22v79c0 34.667 -18.667 61.334 -56 80.001l-24 -75l-67 22l21 65c-50.667 -1.33301 -89.334 -19 -116.001 -53zM382 375l-7 12v-9zM253 73c41.333 0 82 8.00098 122 24.001v281
c-40 15.333 -80.333 23 -121 23c-32 -0.666992 -59.333 -8.83398 -82 -24.501s-34 -38.167 -34 -67.5v-145c0 -29.333 11.333 -51.833 34 -67.5s49.667 -23.5 81 -23.5z" />
    <glyph glyph-name="ntilde" unicode="&#xf1;" horiz-adv-x="532" 
d="M60 475l-0.000976562 -475.001h80v418c40.667 15.333 81.334 23 122.001 23c30.667 0 57.667 -8.16699 81 -24.5s35 -39.166 35 -68.499v-348h79v348c0 54 -19 95.5 -57 124.5s-84 44.167 -138 45.5c-52.667 0 -120 -14.333 -202 -43zM184.999 546.999l-48.002 18
c4.66699 24 14.167 42.5 28.5 55.5s30.833 19.5 49.5 19.5c8.66699 0 21.334 -4 38.001 -12s29.334 -12 38.001 -12c9.33301 0 17.666 8 24.999 24l50 -18c-9.33301 -47.333 -34 -71 -74 -71c-10.667 0 -25 4.16699 -43 12.5s-31 12.5 -39 12.5
c-11.333 0 -19.666 -9.66699 -24.999 -29z" />
    <glyph glyph-name="ograve" unicode="&#xf2;" horiz-adv-x="503" 
d="M246 451c31.333 0 59 -8 83 -24s36 -39 36 -69v-195c0 -30 -12 -53.167 -36 -69.5s-51.667 -24.5 -83 -24.5c-32 0 -60.167 8.16699 -84.5 24.5s-36.5 39.5 -36.5 69.5v195c0 30 12 53 36 69s52.333 24 85 24zM45 358v-195c0 -54.667 19.833 -97 59.5 -127
s86.834 -45.333 141.501 -46c54 0.666992 100.667 16 140 46s59 72.333 59 127v195c0 54 -19.667 96.167 -59 126.5s-86 45.833 -140 46.5c-54.667 -0.666992 -101.834 -16.167 -141.501 -46.5s-59.5 -72.5 -59.5 -126.5zM223 675l71 -121h-84l-94 121h107z" />
    <glyph glyph-name="oacute" unicode="&#xf3;" horiz-adv-x="503" 
d="M205 554l66 120h108l-93 -120h-81zM246 451c-32.667 0 -61 -8 -85 -24s-36 -39 -36 -69v-195c0 -30 12.167 -53.167 36.5 -69.5s52.5 -24.5 84.5 -24.5c31.333 0 59 8.16699 83 24.5s36 39.5 36 69.5v195c0 30 -12 53 -36 69s-51.667 24 -83 24zM45 358
c0 54 19.833 96.167 59.5 126.5s86.834 45.833 141.501 46.5c54 -0.666992 100.667 -16.167 140 -46.5s59 -72.5 59 -126.5v-195c0 -54.667 -19.667 -97 -59 -127s-86 -45.333 -140 -46c-54.667 0.666992 -101.834 16 -141.501 46s-59.5 72.333 -59.5 127v195z" />
    <glyph glyph-name="ocircumflex" unicode="&#xf4;" horiz-adv-x="503" 
d="M246 451c31.333 0 59 -8 83 -24s36 -39 36 -69v-195c0 -30 -12 -53.167 -36 -69.5s-51.667 -24.5 -83 -24.5c-32 0 -60.167 8.16699 -84.5 24.5s-36.5 39.5 -36.5 69.5v195c0 30 12 53 36 69s52.333 24 85 24zM45 358v-195c0 -54.667 19.833 -97 59.5 -127
s86.834 -45.333 141.501 -46c54 0.666992 100.667 16 140 46s59 72.333 59 127v195c0 54 -19.667 96.167 -59 126.5s-86 45.833 -140 46.5c-54.667 -0.666992 -101.834 -16.167 -141.501 -46.5s-59.5 -72.5 -59.5 -126.5zM101 542l110 120h66l109 -120h-84l-60 61
c-6.66699 -8 -16.667 -19 -30 -33s-22 -23.333 -26 -28h-85z" />
    <glyph glyph-name="otilde" unicode="&#xf5;" horiz-adv-x="503" 
d="M246 451c31.333 0 59 -8 83 -24s36 -39 36 -69v-195c0 -30 -12 -53.167 -36 -69.5s-51.667 -24.5 -83 -24.5c-32 0 -60.167 8.16699 -84.5 24.5s-36.5 39.5 -36.5 69.5v195c0 30 12 53 36 69s52.333 24 85 24zM45 358v-195c0 -54.667 19.833 -97 59.5 -127
s86.834 -45.333 141.501 -46c54 0.666992 100.667 16 140 46s59 72.333 59 127v195c0 54 -19.667 96.167 -59 126.5s-86 45.833 -140 46.5c-54.667 -0.666992 -101.834 -16.167 -141.501 -46.5s-59.5 -72.5 -59.5 -126.5zM175 551l-48.001 18
c4.66699 23.333 14 41.333 28 54s30.667 19 50 19c8 0 20.5 -3.83301 37.5 -11.5s29.833 -11.5 38.5 -11.5s16.667 7.66699 24 23l50 -17c-8 -46 -32.333 -69 -73 -69c-10.667 0 -25 3.83301 -43 11.5s-31 11.5 -39 11.5c-11.333 0 -19.666 -9.33301 -24.999 -28z" />
    <glyph glyph-name="odieresis" unicode="&#xf6;" horiz-adv-x="503" 
d="M246 451c31.333 0 59 -8 83 -24s36 -39 36 -69v-195c0 -30 -12 -53.167 -36 -69.5s-51.667 -24.5 -83 -24.5c-32 0 -60.167 8.16699 -84.5 24.5s-36.5 39.5 -36.5 69.5v195c0 30 12 53 36 69s52.333 24 85 24zM45 358v-195c0 -54.667 19.833 -97 59.5 -127
s86.834 -45.333 141.501 -46c54 0.666992 100.667 16 140 46s59 72.333 59 127v195c0 54 -19.667 96.167 -59 126.5s-86 45.833 -140 46.5c-54.667 -0.666992 -101.834 -16.167 -141.501 -46.5s-59.5 -72.5 -59.5 -126.5zM275 596c0 13.333 4.5 24.5 13.5 33.5
s20.167 13.5 33.5 13.5c12.667 0 23.5 -4.66699 32.5 -14s13.5 -20.333 13.5 -33s-4.5 -23.5 -13.5 -32.5s-19.833 -13.5 -32.5 -13.5c-13.333 0 -24.5 4.33301 -33.5 13s-13.5 19.667 -13.5 33zM123 596c0 13.333 4.5 24.5 13.5 33.5s19.833 13.5 32.5 13.5
s23.667 -4.5 33 -13.5s14 -20.167 14 -33.5c0 -12.667 -4.5 -23.5 -13.5 -32.5s-20.167 -13.5 -33.5 -13.5c-12.667 0 -23.5 4.33301 -32.5 13s-13.5 19.667 -13.5 33z" />
    <glyph glyph-name="divide" unicode="&#xf7;" horiz-adv-x="528" 
d="M37 286v83h438v-83h-438zM194 479c0 16.667 6 31 18 43s26.667 18 44 18s32 -6 44 -18s18 -26.333 18 -43s-6 -31.167 -18 -43.5s-26.667 -18.5 -44 -18.5s-32 6.16699 -44 18.5s-18 26.833 -18 43.5zM199 176c0 17.333 6 31.667 18 43s26.667 17.333 44 18
c17.333 0 32 -6 44 -18s18 -26.333 18 -43c0 -17.333 -6 -32 -18 -44s-26.667 -18 -44 -18s-32 6 -44 18s-18 26.667 -18 44z" />
    <glyph glyph-name="oslash" unicode="&#xf8;" horiz-adv-x="503" 
d="M45 163l-0.000976562 195c0 54 19.833 96.167 59.5 126.5s86.834 45.833 141.501 46.5c21.333 -0.666992 42.333 -3.66699 63 -9l30 73l72 -27l-33 -77c44.667 -30 67 -74.333 67 -133v-195c0 -54.667 -19.667 -97 -59 -127s-86 -45.333 -140 -46
c-27.333 1.33301 -50.333 4.33301 -69 9l-28 -66l-66 27l29 69c-44.667 31.333 -67 76 -67 134zM245.999 69c31.333 0 59 8.16699 83 24.5s36 39.5 36 69.5v195c0 21.333 -6.33301 39.333 -19 54l-139 -339c11.333 -2.66699 24.333 -4 39 -4zM245.999 451
c-32.667 0 -61.001 -8 -85.001 -24s-36 -39 -36 -69v-195c0 -20.667 6 -38.667 18 -54l137 339c-11.333 2 -22.666 3 -33.999 3z" />
    <glyph glyph-name="ugrave" unicode="&#xf9;" horiz-adv-x="517" 
d="M452 29v490h-80v-436c-33.333 -11.333 -74 -17 -122 -17c-31.333 0.666992 -58.5 9.5 -81.5 26.5s-34.5 39.833 -34.5 68.5v358h-80v-356c0 -54 19.333 -96 58 -126s84.667 -45.333 138 -46c62.667 0 130 12.667 202 38zM222 666l84 -136h-77l-107 136h100z" />
    <glyph glyph-name="uacute" unicode="&#xfa;" horiz-adv-x="517" 
d="M452 519v-490c-72 -25.333 -139.333 -38 -202 -38c-53.333 0.666992 -99.333 16 -138 46s-58 72 -58 126v356h80v-358c0 -28.667 11.5 -51.5 34.5 -68.5s50.167 -25.833 81.5 -26.5c48 0 88.667 5.66699 122 17v436h80zM198 533l83 133h98l-105 -133h-76z" />
    <glyph glyph-name="ucircumflex" unicode="&#xfb;" horiz-adv-x="517" 
d="M452 29v490h-80v-436c-33.333 -11.333 -74 -17 -122 -17c-31.333 0.666992 -58.5 9.5 -81.5 26.5s-34.5 39.833 -34.5 68.5v358h-80v-356c0 -54 19.333 -96 58 -126s84.667 -45.333 138 -46c62.667 0 130 12.667 202 38zM112 549l110 121h66l110 -121h-85l-59 61l-57 -61
h-85z" />
    <glyph glyph-name="udieresis" unicode="&#xfc;" horiz-adv-x="517" 
d="M452 29v490h-80v-436c-33.333 -11.333 -74 -17 -122 -17c-31.333 0.666992 -58.5 9.5 -81.5 26.5s-34.5 39.833 -34.5 68.5v358h-80v-356c0 -54 19.333 -96 58 -126s84.667 -45.333 138 -46c62.667 0 130 12.667 202 38zM283 609c0 13.333 4.33301 24.5 13 33.5
s19.667 13.5 33 13.5c12.667 0 23.5 -4.5 32.5 -13.5s13.5 -20.167 13.5 -33.5c0 -12.667 -4.5 -23.5 -13.5 -32.5s-19.833 -13.5 -32.5 -13.5c-13.333 0 -24.333 4.33301 -33 13s-13 19.667 -13 33zM132 609c0 13.333 4.5 24.5 13.5 33.5s19.833 13.5 32.5 13.5
s23.5 -4.66699 32.5 -14s13.5 -20.333 13.5 -33s-4.5 -23.5 -13.5 -32.5s-19.833 -13.5 -32.5 -13.5c-13.333 0 -24.333 4.5 -33 13.5s-13 19.833 -13 32.5z" />
    <glyph glyph-name="yacute" unicode="&#xfd;" horiz-adv-x="519" 
d="M66 -101l55.001 50c13.333 -16.667 31.666 -29.5 54.999 -38.5s47.333 -13.5 72 -13.5c34.667 0 64.667 8.33301 90 25s38 40.667 38 72v30c-22.667 -20 -64 -30.667 -124 -32c-54.667 -0.666992 -102.5 15.166 -143.5 47.499s-61.5 75.833 -61.5 130.5v348h82v-350
c-0.666992 -29.333 11 -52.166 35 -68.499s52.667 -24.833 86 -25.5c41.333 0 83.333 8.33301 126 25v419h80v-524c0 -56.667 -19.667 -100 -59 -130s-87 -45 -143 -45c-34.667 0 -69 7 -103 21s-62.333 33.667 -85 59zM191.001 532l83 133h98l-105 -133h-76z" />
    <glyph glyph-name="thorn" unicode="&#xfe;" horiz-adv-x="521" 
d="M59 -186v882.999h80v-193c42 8.66699 83 13 123 13c54 -0.666992 100.333 -15.834 139 -45.501s58 -71.834 58 -126.501v-182c0 -53.333 -19.833 -95.666 -59.5 -126.999s-86.5 -46.666 -140.5 -45.999c-40.667 0.666992 -80.667 8.33398 -120 23.001v-199h-80z
M139 424.999v-332.001c38.667 -15.333 79.334 -23 122.001 -23c32.667 0.666992 60.667 9 84 25s34.666 38.667 33.999 68v184c0.666992 28.667 -10.5 50.834 -33.5 66.501s-50.833 23.5 -83.5 23.5c-53.333 0 -94.333 -4 -123 -12zM139 83.998l-9 13l9 -4v-9z" />
    <glyph glyph-name="ydieresis" unicode="&#xff;" horiz-adv-x="519" 
d="M114 -57l18.999 -1.00098c24 -30 62.333 -45 115 -45c34.667 0 64.667 8.33301 90 25s38 40.667 38 72v20c-29.333 -13.333 -70.666 -20.666 -123.999 -21.999c-54.667 -0.666992 -102.5 15.166 -143.5 47.499s-61.5 75.833 -61.5 130.5v348h82v-350
c-0.666992 -29.333 11 -52.166 35 -68.499s52.667 -24.833 86 -25.5c41.333 0 83.333 8.33301 126 25v419h80v-524c0 -56.667 -19.667 -100 -59 -130s-87 -45 -143 -45c-34.667 0 -69 7 -103 21s-62.333 33.667 -85 59zM282.999 600.999
c0 13.333 4.50098 24.666 13.501 33.999s19.833 14 32.5 14c13.333 0 24.666 -4.66699 33.999 -14s14 -20.666 14 -33.999s-4.5 -24.333 -13.5 -33s-20.167 -13 -33.5 -13c-31.333 0 -47 15.333 -47 46zM134 600.999c0 13.333 4.5 24.666 13.5 33.999s20.167 14 33.5 14
s24.5 -4.66699 33.5 -14s13.5 -20.666 13.5 -33.999s-4.5 -24.333 -13.5 -33s-20.167 -13 -33.5 -13s-24.5 4.5 -33.5 13.5s-13.5 19.833 -13.5 32.5z" />
    <glyph glyph-name="dotlessi" unicode="&#x131;" horiz-adv-x="221" 
d="M64 0v507h84v-507h-84z" />
    <glyph glyph-name="Lslash" unicode="&#x141;" horiz-adv-x="497" 
d="M73 0v207l-24 -20l-46 62l70 61v398h85v-322l84 71l41 -67l-125 -106v-199h323v-85h-408z" />
    <glyph glyph-name="lslash" unicode="&#x142;" horiz-adv-x="256" 
d="M246 76v-80c-56 0 -99.333 14.833 -130 44.5s-46 71.167 -46 124.5v144l-43 -30l-33 65l76 54v307h79v-252l40 29l34 -62l-74 -53v-202c0 -59.333 32.333 -89 97 -89z" />
    <glyph glyph-name="OE" unicode="&#x152;" horiz-adv-x="959" 
d="M907 707v-83.999h-370v-229h340v-83h-340v-228h370v-84h-453v33c-19.333 -30.667 -61 -45.334 -125 -44.001c-75.333 1.33301 -140.166 21.5 -194.499 60.5s-81.5 93.167 -81.5 162.5v284c0 70 27.667 124.5 83 163.5s121 58.833 197 59.5
c22.667 0 46.167 -3.83301 70.5 -11.5s41.166 -17.5 50.499 -29.5v30h453zM334 72.001c45.333 0 85.334 8 120.001 24v517c-34 15.333 -74 22.333 -120 21c-54.667 0 -101.334 -11.833 -140.001 -35.5s-58 -58.167 -58 -103.5v-284c0 -44 19.5 -78.167 58.5 -102.5
s85.5 -36.5 139.5 -36.5z" />
    <glyph glyph-name="oe" unicode="&#x153;" horiz-adv-x="831" 
d="M685 357c0 29.333 -11.833 52 -35.5 68s-51.5 24 -83.5 24s-60 -8 -84 -24s-36 -39.333 -36 -70v-63h239v65zM248 447c-32 0 -59.833 -7.83301 -83.5 -23.5s-35.5 -38.5 -35.5 -68.5v-190c0 -30 11.833 -52.833 35.5 -68.5s51.5 -23.5 83.5 -23.5
c31.333 0 58.833 8 82.5 24s35.5 38.667 35.5 68v191c0 29.333 -11.833 51.833 -35.5 67.5s-51.167 23.5 -82.5 23.5zM50 355c0 54 19.501 96.167 58.501 126.5s85.5 45.5 139.5 45.5c34 0 65.5 -7.5 94.5 -22.5s50.167 -37.167 63.5 -66.5c28.667 58.667 82 88.667 160 90
c53.333 -0.666992 99.833 -16 139.5 -46s59.5 -72 59.5 -126v-132h-319v-59c0 -30 12 -53 36 -69s52 -24 84 -24c25.333 0 48.833 6 70.5 18s37.5 29.333 47.5 52l72 -35c-17.333 -36.667 -43.333 -64.834 -78 -84.501s-72 -29.834 -112 -30.501
c-74 0 -127.333 24.333 -160 73c-30.667 -46.667 -83.334 -70.667 -158.001 -72c-54 0.666992 -100.5 15.834 -139.5 45.501s-58.5 71.834 -58.5 126.501v190z" />
    <glyph glyph-name="Scaron" unicode="&#x160;" horiz-adv-x="595" 
d="M128 528c-1.33301 -16.667 1.17383 -31.165 7.50684 -43.498s14 -22.333 23 -30s22.667 -14.667 41 -21s33.666 -11 45.999 -14s30.833 -6.83301 55.5 -11.5c26.667 -5.33301 47.5 -9.83301 62.5 -13.5s34.167 -9.33398 57.5 -17.001s41.666 -16.5 54.999 -26.5
s26.666 -22.667 39.999 -38s22.666 -34 27.999 -56s7.33301 -47 6 -75c-3.33301 -61.333 -30 -109 -80 -143s-109 -51 -177 -51c-56.667 0 -109.334 13.167 -158.001 39.5s-83.667 63.833 -105 112.5l77 35c14.667 -32.667 39.5 -58.167 74.5 -76.5
s72.833 -27.5 113.5 -27.5c45.333 0 84.5 10 117.5 30s50.833 48.333 53.5 85c1.33301 16.667 0.333008 31.5 -3 44.5s-9.83301 24.167 -19.5 33.5s-19.167 17.166 -28.5 23.499s-22.833 12.333 -40.5 18s-32.167 9.83398 -43.5 12.501s-28 6.33398 -50 11.001
c-27.333 6 -50.5 11.667 -69.5 17s-39.833 13.166 -62.5 23.499s-40.834 22.333 -54.501 36s-25.334 31.167 -35.001 52.5s-14.5 45.666 -14.5 72.999c3.33301 59.333 29.333 105.833 78 139.5s105.667 50.5 171 50.5c55.333 0 107.166 -12.833 155.499 -38.5
s82.833 -62.167 103.5 -109.5l-76 -34c-14 32 -38.167 56.833 -72.5 74.5s-71.166 26.5 -110.499 26.5c-44 0 -82 -9.83301 -114 -29.5s-49.333 -47.167 -52 -82.5zM461.007 883.002l-130 -136h-79l-130 136h101l69 -69l67 69h102z" />
    <glyph glyph-name="scaron" unicode="&#x161;" horiz-adv-x="418" 
d="M68 151l-60.0029 -36.999c24.667 -39.333 55.334 -69.5 92.001 -90.5s75.334 -30.833 116.001 -29.5c48.667 1.33301 90 14.666 124 39.999s51 62 51 110c-0.666992 83.333 -56.334 135.333 -167.001 156c-15.333 2.66699 -28 5.33398 -38 8.00098
s-22 6.83398 -36 12.501s-24.667 13 -32 22s-11 19.833 -11 32.5c0 26 11 44.5 33 55.5s47.333 16.5 76 16.5c40 0 74.667 -15 104 -45l52 61c-42 41.333 -94 62 -156 62c-49.333 0 -93 -12.5 -131 -37.5s-57 -62.5 -57 -112.5c0 -26.667 5.16699 -49.334 15.5 -68.001
s25.333 -33.5 45 -44.5s38.334 -19.167 56.001 -24.5s39.5 -10.333 65.5 -15h-1c20 -4 36.333 -8 49 -12s24.834 -11.833 36.501 -23.5s17.5 -26.167 17.5 -43.5c0.666992 -24.667 -8.5 -42.834 -27.5 -54.501s-41.833 -17.834 -68.5 -18.501
c-27.333 -1.33301 -54.5 5.33398 -81.5 20.001s-49.167 34.667 -66.5 60zM356.997 661.001l-111 -115h-68l-111 115h86l60 -57l56 57h88z" />
    <glyph glyph-name="Ydieresis" unicode="&#x178;" horiz-adv-x="530" 
d="M113 780c0 14.667 5.16699 27.167 15.5 37.5s22.833 15.5 37.5 15.5s27 -5.16699 37 -15.5s15 -22.833 15 -37.5s-5 -27.167 -15 -37.5s-22.333 -15.5 -37 -15.5s-27.167 5.16699 -37.5 15.5s-15.5 22.833 -15.5 37.5zM307 780c0 14.667 5.16699 27.167 15.5 37.5
s22.833 15.5 37.5 15.5s27.167 -5.16699 37.5 -15.5s15.5 -22.833 15.5 -37.5s-5.16699 -27.167 -15.5 -37.5s-22.833 -15.5 -37.5 -15.5s-27.167 5.16699 -37.5 15.5s-15.5 22.833 -15.5 37.5zM551 708l-247 -432v-276h-84v276l-246 432h97l192 -343l190 343h98z" />
    <glyph glyph-name="Zcaron" unicode="&#x17d;" horiz-adv-x="563" 
d="M29 624h395l-414 -565l24 -59h500v84h-402l414 566l-27 58h-490v-84zM454 866l-128 -130h-78l-128 130h97l71 -69l68 69h98z" />
    <glyph glyph-name="zcaron" unicode="&#x17e;" horiz-adv-x="438" 
d="M24 437l281 4l-303 -390l43 -51h368v81c-30.667 0 -79.667 -0.666992 -147 -2s-117 -2 -149 -2l301 389l-42 52h-352v-81zM364 659l-110 -114h-66l-110 114h85l58 -56l56 56h87z" />
    <glyph glyph-name="florin" unicode="&#x192;" horiz-adv-x="507" 
d="M391 424l0.00195312 -77h-113l-66 -356c-16 -85.333 -65.667 -128 -149 -128c-34.667 0 -65.667 11.333 -93 34l44 67c18 -15.333 35.667 -23 53 -23c19.333 0 34.166 7.66699 44.499 23s18.5 39 24.5 71v1l58 311h-100v77h113c14.667 74.667 23.334 119.667 26.001 135
c8 42.667 23.667 78.5 47 107.5s57.333 43.5 102 43.5c32.667 0 67 -13 103 -39l-45 -65c-24.667 17.333 -44 26 -58 26c-34 0 -56 -25 -66 -75v1c-2.66699 -16 -6.83398 -38.167 -12.501 -66.5s-9.83398 -50.833 -12.501 -67.5h100z" />
    <glyph glyph-name="circumflex" unicode="&#x2c6;" horiz-adv-x="262" 
d="M-40 559l127 139h76l127 -139h-98l-69 71c-6.66699 -8 -17.5 -19.833 -32.5 -35.5s-25.833 -27.5 -32.5 -35.5h-98z" />
    <glyph glyph-name="caron" unicode="&#x2c7;" horiz-adv-x="257" 
d="M289 697l-128 -133h-78l-128 133h99l69 -66l65 66h101z" />
    <glyph glyph-name="uni02C9" unicode="&#x2c9;" 
d="M255 675v-77h-277v77h277z" />
    <glyph glyph-name="breve" unicode="&#x2d8;" 
d="M220 694l12.998 -15c-4 -34.667 -18.5 -61.5 -43.5 -80.5s-53.5 -28.5 -85.5 -28.5s-60.5 10.833 -85.5 32.5s-39.5 52.167 -43.5 91.5h73c4 -16 11.333 -28.5 22 -37.5s22.667 -13.5 36 -13.5c12.667 0 24.334 4.5 35.001 13.5s17.334 21.5 20.001 37.5h59z" />
    <glyph glyph-name="dotaccent" unicode="&#x2d9;" 
d="M58 632c0 17.333 6 32 18 44s26.667 18 44 18s32 -6 44 -18s18 -26.667 18 -44s-6 -32 -18 -44s-26.667 -18 -44 -18s-32 6 -44 18s-18 26.667 -18 44z" />
    <glyph glyph-name="ring" unicode="&#x2da;" 
d="M15 629c0 28 10 52.168 30 72.501s44.333 30.5 73 30.5c28 0 51.667 -10.5 71 -31.5s29 -45.167 29 -72.5c0 -26.667 -9.83301 -50.334 -29.5 -71.001s-43.167 -31 -70.5 -31c-28.667 0 -53 10.167 -73 30.5s-30 44.5 -30 72.5zM150 629.001
c0 9.33301 -3.16699 17.5 -9.5 24.5s-14.166 10.5 -23.499 10.5s-17.166 -3.5 -23.499 -10.5s-9.5 -15.5 -9.5 -25.5c0 -9.33301 3.16699 -17.333 9.5 -24s14.166 -10 23.499 -10s17.166 3.5 23.499 10.5s9.5 15.167 9.5 24.5z" />
    <glyph glyph-name="ogonek" unicode="&#x2db;" 
d="M159 -67l37 -68c-31.333 -28 -63.666 -42 -96.999 -42c-29.333 0 -53.333 8.16699 -72 24.5s-28 38.5 -28 66.5c0 26.667 9.66699 50 29 70s41.666 34.333 66.999 43h82l-17 -13l-18 -14.5l-17.5 -15c-5.66699 -5 -11 -10 -16 -15s-9.5 -10 -13.5 -15s-7 -10 -9 -15
s-3 -9.5 -3 -13.5c0 -18 8.33301 -27 25 -27c16 0 33 11.333 51 34z" />
    <glyph glyph-name="tilde" unicode="&#x2dc;" horiz-adv-x="271" 
d="M54 590l-54.9971 19.999c5.33301 26.667 16.166 47.334 32.499 62.001s35.166 22 56.499 22c9.33301 0 23.666 -4.5 42.999 -13.5s34 -13.5 44 -13.5s19.333 9 28 27l57 -20c-10 -52.667 -38 -79 -84 -79c-12 0 -28.333 4.5 -49 13.5s-35.667 13.5 -45 13.5
c-12 0 -21.333 -10.667 -28 -32z" />
    <glyph glyph-name="hungarumlaut" unicode="&#x2dd;" horiz-adv-x="273" 
d="M7 538l66 160h108l-99 -160h-75zM146 538l65 160h108l-98 -160h-75z" />
    <glyph glyph-name="uni03A9" unicode="&#x3a9;" horiz-adv-x="752" 
d="M31 0l-0.000976562 79.001h140c-85.333 80.667 -128 180 -128 298c0 101.333 32.5 183.166 97.5 245.499s145.5 93.5 241.5 93.5s174.667 -32.333 236 -97s92 -144 92 -238c0 -62 -11.667 -119 -35 -171s-53.333 -95.667 -90 -131h137v-79h-285v57
c56 31.333 101.5 75.5 136.5 132.5s52.5 120.833 52.5 191.5c0 66 -22.667 125.333 -68 178s-104.666 79 -177.999 79s-133.666 -24.833 -180.999 -74.5s-71 -112.5 -71 -188.5c0 -64.667 17.667 -124.5 53 -179.5s81.666 -101.167 138.999 -138.5v-57h-289z" />
    <glyph glyph-name="uni03BC" unicode="&#x3bc;" horiz-adv-x="502" 
d="M450 512l2 -512h-81c0 6.66699 0.166992 13 0.5 19s0.5 10.333 0.5 13v7.5c0 2.33301 -0.666992 4.5 -2 6.5c-32 -38 -79.333 -57 -142 -57c-38 0 -70.667 11 -98 33v-238h-83v728h84v-318c0 -85.333 32.333 -128 97 -128c40 0 73 14.333 99 43s39 69.667 39 123v280h84z
" />
    <glyph glyph-name="pi" unicode="&#x3c0;" horiz-adv-x="548" 
d="M489 77l1 -79.002c-50 2.66699 -84.833 16.334 -104.5 41.001s-29.5 60 -29.5 106v303h-171v-448h-79v448c-33.333 -0.666992 -65.333 -6.33398 -96 -17.001l-17 61c34.667 21.333 81 32 139 32h386l-8 -76h-73v-297c0 -27.333 3.66699 -46.666 11 -57.999
s21 -16.666 41 -15.999z" />
    <glyph glyph-name="endash" unicode="&#x2013;" horiz-adv-x="529" 
d="M28 257v81h467v-81h-467z" />
    <glyph glyph-name="emdash" unicode="&#x2014;" horiz-adv-x="951" 
d="M35 257v81h877v-81h-877z" />
    <glyph glyph-name="quoteleft" unicode="&#x2018;" horiz-adv-x="219" 
d="M195 698l-69 -243h-96l81 243h84z" />
    <glyph glyph-name="quoteright" unicode="&#x2019;" horiz-adv-x="228" 
d="M29 455l68 243h97l-82 -243h-83z" />
    <glyph glyph-name="quotesinglbase" unicode="&#x201a;" horiz-adv-x="244" 
d="M30 -131l67 229h98l-83 -229h-82z" />
    <glyph glyph-name="quotedblleft" unicode="&#x201c;" horiz-adv-x="406" 
d="M205 698l-67 -243h-97l82 243h82zM365 698l-67 -243h-97l82 243h82z" />
    <glyph glyph-name="quotedblright" unicode="&#x201d;" horiz-adv-x="433" 
d="M211 455l67 243h97l-81 -243h-83zM56 455l67 243h97l-82 -243h-82z" />
    <glyph glyph-name="quotedblbase" unicode="&#x201e;" horiz-adv-x="471" 
d="M222 -131l68 225h97l-82 -225h-83zM67 -131l67 225h98l-83 -225h-82z" />
    <glyph glyph-name="dagger" unicode="&#x2020;" horiz-adv-x="507" 
d="M205 -120v557h-182v77h182v184h83v-184h182v-77h-182v-557h-83z" />
    <glyph glyph-name="daggerdbl" unicode="&#x2021;" horiz-adv-x="507" 
d="M205 -120v186h-182v75h182v296h-182v76h182v185h83v-185h182v-76h-182v-296h182v-75h-182v-186h-83z" />
    <glyph glyph-name="bullet" unicode="&#x2022;" horiz-adv-x="428" 
d="M53 349c0 42 14.667 77.667 44 107s65 44 107 44c41.333 0 76.666 -14.667 105.999 -44s44 -65 44 -107c0 -41.333 -14.667 -76.833 -44 -106.5s-64.666 -44.5 -105.999 -44.5c-42 0 -77.667 14.833 -107 44.5s-44 65.167 -44 106.5z" />
    <glyph glyph-name="ellipsis" unicode="&#x2026;" horiz-adv-x="702" 
d="M79 53c0 16.667 5.66699 30.667 17 42s25.333 17 42 17s30.667 -5.66699 42 -17s17 -25.333 17 -42s-5.66699 -30.667 -17 -42s-25.333 -17 -42 -17s-30.667 5.66699 -42 17s-17 25.333 -17 42zM277 53c0 16.667 5.66699 30.667 17 42s25.333 17 42 17
s30.667 -5.66699 42 -17s17 -25.333 17 -42s-5.66699 -30.667 -17 -42s-25.333 -17 -42 -17s-30.667 5.66699 -42 17s-17 25.333 -17 42zM475 53c0 16.667 5.5 30.667 16.5 42s24.833 17 41.5 17s30.667 -5.66699 42 -17s17 -25.333 17 -42s-5.66699 -30.667 -17 -42
s-25.333 -17 -42 -17s-30.5 5.66699 -41.5 17s-16.5 25.333 -16.5 42z" />
    <glyph glyph-name="perthousand" unicode="&#x2030;" horiz-adv-x="1107" 
d="M329 508c0 -59.333 -14.168 -106.5 -42.501 -141.5s-65.166 -52.5 -110.499 -52.5c-49.333 0 -87.333 16.833 -114 50.5s-40 82.167 -40 145.5c0 58 14.333 104.5 43 139.5s65.667 52.5 111 52.5c48 0 85.5 -17 112.5 -51s40.5 -81.667 40.5 -143zM733.999 190
c0 -59.333 -14.332 -106.333 -42.999 -141s-65.334 -52 -110.001 -52c-49.333 0 -87.333 16.667 -114 50s-40 81.666 -40 144.999c0 58.667 14.333 105.334 43 140.001s65.667 52 111 52c48 0 85.5 -17 112.5 -51s40.5 -81.667 40.5 -143zM652 190
c0 76.667 -24.332 115 -72.999 115c-46.667 0 -70 -37.667 -70 -113c0 -40 5.66699 -69 17 -87s29.666 -27 54.999 -27c47.333 0 71 37.333 71 112zM650.001 700l-487 -771l-69 43l488 771zM248.001 508c0 76 -24.334 114 -73.001 114c-47.333 0 -71 -37.333 -71 -112
c0 -40 5.83301 -69 17.5 -87s29.834 -27 54.501 -27c48 0 72 37.333 72 112zM1077 190c0 -59.333 -14.167 -106.333 -42.5 -141s-64.833 -52 -109.5 -52c-49.333 0 -87.333 16.667 -114 50s-40 81.666 -40 144.999c0 58.667 14.167 105.334 42.5 140.001s65.5 52 111.5 52
c47.333 0 84.5 -17 111.5 -51s40.5 -81.667 40.5 -143zM996 190c0 76.667 -24.333 115 -73 115c-47.333 0 -71 -37.667 -71 -113c0 -40 5.83301 -69 17.5 -87s30.167 -27 55.5 -27c47.333 0 71 37.333 71 112z" />
    <glyph glyph-name="guilsinglleft" unicode="&#x2039;" horiz-adv-x="259" 
d="M162 83l-142 210l142 211l69 -42l-116 -169l116 -169z" />
    <glyph glyph-name="guilsinglright" unicode="&#x203a;" horiz-adv-x="260" 
d="M91 504l141 -211l-141 -210l-70 40l116 170l-116 169z" />
    <glyph glyph-name="fraction" unicode="&#x2044;" horiz-adv-x="168" 
d="M-174 3l446 732l66 -40l-447 -732z" />
    <glyph glyph-name="Euro" unicode="&#x20ac;" horiz-adv-x="582" 
d="M75 489c0 68.667 24.167 122.502 72.5 161.502s105.5 58.5 171.5 58.5c48.667 0 94.167 -12.333 136.5 -37s74.5 -59.667 96.5 -105l-75 -38c-15.333 31.333 -37.5 55.166 -66.5 71.499s-59.5 24.5 -91.5 24.5c-44 0 -82.167 -12.167 -114.5 -36.5
s-48.5 -57.5 -48.5 -99.5v-50h260l-14 -69h-246v-43h262l-14 -68h-248v-50c0 -42.667 15.833 -76 47.5 -100s69.5 -36 113.5 -36c33.333 0 64.5 8.16699 93.5 24.5s51.167 39.833 66.5 70.5l75 -36c-22 -46 -54.333 -81.167 -97 -105.5s-88.667 -36.5 -138 -36.5
c-66 0 -122.833 19.167 -170.5 57.5s-71.5 92.166 -71.5 161.499v50h-67l15 68h52v43h-63l14 69h49v50z" />
    <glyph glyph-name="afii61289" unicode="&#x2113;" horiz-adv-x="431" 
d="M350 170l58.999 -47c-44.667 -86.667 -104 -130 -178 -130c-50.667 0 -88.834 16.5 -114.501 49.5s-40.167 76.833 -43.5 131.5l-44 -35l-30 57c8 7.33301 32.667 31.666 74 72.999v258c0 84.667 14 145.5 42 182.5s62.333 55.5 103 55.5
c38.667 0 68.334 -15.167 89.001 -45.5s31 -69.5 31 -117.5c0 -114.667 -62.333 -236 -187 -364v-22c0.666992 -96.667 30.334 -145 89.001 -145c21.333 0 42 9.33301 62 28s36 42.334 48 71.001zM150.999 532v-186c74 93.333 111 178 111 254c0 58 -15.667 87 -47 87
c-17.333 0 -32.333 -12.167 -45 -36.5s-19 -63.833 -19 -118.5z" />
    <glyph glyph-name="trademark" unicode="&#x2122;" horiz-adv-x="829" 
d="M449 546l2 -235h-76v396h79l112 -244l112 244h79v-396h-76l3 240l-89 -196h-59zM214 634v-323h-76v323h-123v73h322v-73h-123z" />
    <glyph glyph-name="Omega" unicode="&#x2126;" horiz-adv-x="752" 
d="M31 0l-0.000976562 79.001h140c-85.333 80.667 -128 180 -128 298c0 101.333 32.5 183.166 97.5 245.499s145.5 93.5 241.5 93.5s174.667 -32.333 236 -97s92 -144 92 -238c0 -62 -11.667 -119 -35 -171s-53.333 -95.667 -90 -131h137v-79h-285v57
c56 31.333 101.5 75.5 136.5 132.5s52.5 120.833 52.5 191.5c0 66 -22.667 125.333 -68 178s-104.666 79 -177.999 79s-133.666 -24.833 -180.999 -74.5s-71 -112.5 -71 -188.5c0 -64.667 17.667 -124.5 53 -179.5s81.666 -101.167 138.999 -138.5v-57h-289z" />
    <glyph glyph-name="estimated" unicode="&#x212e;" horiz-adv-x="883" 
d="M828 326h-629.002v-180c0 -2.66699 1.33301 -6.66699 4 -12c68.667 -66 144.334 -99 227.001 -99c93.333 0 174 38.333 242 115h92c-42 -49.333 -92.5 -88.333 -151.5 -117s-120.167 -43 -183.5 -43c-110 0 -204 35 -282 105s-117 154.667 -117 254s39 184.333 117 255
s172 106 282 106c110.667 0 204.834 -35.333 282.501 -106s116.5 -155.667 116.5 -255v-23zM198.998 550l-0.000976562 -178.999h461v183c0 5.33301 -1.66699 9.66602 -5 12.999c-65.333 63.333 -140.333 95 -225 95c-41.333 0 -81.666 -8.83301 -120.999 -26.5
s-74 -41.167 -104 -70.5c-4 -4 -6 -9 -6 -15zM198.997 364.001c-2 4 -4.33301 6.33301 -7 7h7v-7zM666.997 371.001c-4.66699 -0.666992 -7 -2.66699 -7 -6v6h7z" />
    <glyph glyph-name="partialdiff" unicode="&#x2202;" horiz-adv-x="492" 
d="M84 616l-33 67c48 38.667 102 58 162 58c64.667 0 119.834 -30.167 165.501 -90.5s68.5 -148.833 68.5 -265.5c0 -118 -20.833 -212.833 -62.5 -284.5s-101.5 -107.5 -179.5 -107.5c-57.333 0 -101.833 21.333 -133.5 64s-47.5 94.667 -47.5 156
c0 73.333 20.333 132.833 61 178.5s88.334 68.5 143.001 68.5c53.333 0 99.666 -20.333 138.999 -61c0 75.333 -14.833 138.5 -44.5 189.5s-67.834 76.5 -114.501 76.5c-42 0 -83.333 -16.333 -124 -49zM206 71l1.00098 -0.000976562c39.333 0 73.666 22.333 102.999 67
s45.333 97 48 157c-7.33301 22 -23 42.333 -47 61s-50.667 28 -80 28c-34 0 -63.333 -16.667 -88 -50s-37 -73 -37 -119c0 -43.333 9.16699 -78.166 27.5 -104.499s42.5 -39.5 72.5 -39.5z" />
    <glyph glyph-name="Delta" unicode="&#x2206;" horiz-adv-x="605" 
d="M24 0v56l231 658h82l230 -657v-57h-543zM121 80h344l-171 499zM305 609l-11 -30c-2 4.66699 -5.33301 15 -10 31l10 -9z" />
    <glyph glyph-name="product" unicode="&#x220f;" horiz-adv-x="652" 
d="M616 620h-99v-686h-81v686h-238v-686h-81v686h-97v79h596v-79z" />
    <glyph glyph-name="summation" unicode="&#x2211;" horiz-adv-x="521" 
d="M493 -83h-479v56l251 332l-239 334v58h452v-77h-339l221 -312l-237 -316h370v-75z" />
    <glyph glyph-name="minus" unicode="&#x2212;" horiz-adv-x="601" 
d="M39 265v78h510v-78h-510z" />
    <glyph glyph-name="uni2215" unicode="&#x2215;" horiz-adv-x="168" 
d="M-174 3l446 732l66 -40l-447 -732z" />
    <glyph glyph-name="uni2219" unicode="&#x2219;" horiz-adv-x="260" 
d="M68 315c0 16.667 5.66699 30.667 17 42s25.333 17 42 17s30.5 -5.66699 41.5 -17s16.5 -25.333 16.5 -42s-5.5 -30.667 -16.5 -42s-24.833 -17 -41.5 -17s-30.667 5.66699 -42 17s-17 25.333 -17 42z" />
    <glyph glyph-name="radical" unicode="&#x221a;" horiz-adv-x="539" 
d="M532 821l-203.999 -967.001h-72l-141 437c-4 -1.33301 -14.333 -5.16602 -31 -11.499s-28.334 -10.5 -35.001 -12.5l-27 72l144 55l117 -381l165 808h84z" />
    <glyph glyph-name="infinity" unicode="&#x221e;" horiz-adv-x="733" 
d="M678 291l-0.000976562 -1c0 -46 -15.333 -83.667 -46 -113s-66.667 -44 -108 -44c-28 0 -54.333 7.66699 -79 23s-53 40 -85 74c-28.667 -31.333 -55.667 -55.333 -81 -72s-54.666 -25 -87.999 -25c-42 0 -77.667 14.833 -107 44.5s-44 66.167 -44 109.5
c0 46 14.833 84 44.5 114s67.167 45 112.5 45c31.333 0 60 -8.66699 86 -26s52.667 -41.666 80 -72.999c19.333 21.333 35.666 38 48.999 50s30.833 23.167 52.5 33.5s43.834 15.5 66.501 15.5c44 -0.666992 79.5 -15.334 106.5 -44.001s40.5 -65.667 40.5 -111z
M195.999 209h1c29.333 0 67 25.333 113 76l3 3c-14.667 17.333 -27 30.833 -37 40.5s-22.833 19 -38.5 28s-31.5 13.5 -47.5 13.5c-22 0 -39.333 -8 -52 -24s-19 -35.667 -19 -59c0 -22 7.16699 -40.5 21.5 -55.5s32.833 -22.5 55.5 -22.5zM525.999 370
c-28 0 -64.667 -24.335 -110 -73.002l-6 -7c27.333 -29.333 49.333 -50.166 66 -62.499s33.667 -18.5 51 -18.5c22 0 39.667 7.83301 53 23.5s20 33.834 20 54.501c0 26 -6.83301 46.333 -20.5 61s-31.5 22 -53.5 22z" />
    <glyph glyph-name="integral" unicode="&#x222b;" horiz-adv-x="326" 
d="M317 821l-18.002 -71.998c-22.667 15.333 -41.334 23 -56.001 23c-15.333 0 -27.666 -7.83301 -36.999 -23.5s-13.666 -36.834 -12.999 -63.501l5 -251c4.66699 -246 7 -390.667 7 -434c0 -48.667 -12.667 -85.667 -38 -111s-56.666 -38 -93.999 -38
c-21.333 0 -46.666 6.33301 -75.999 19l19 67c21.333 -8.66699 37.666 -13 48.999 -13c18.667 0 33.5 7 44.5 21s16.5 32.667 16.5 56c0 52 -2 168.667 -6 350c-4 178.667 -6 292 -6 340c0 49.333 12.167 87.666 36.5 114.999s53.833 41 88.5 41
c24.667 0 50.667 -8.66699 78 -26z" />
    <glyph glyph-name="approxequal" unicode="&#x2248;" horiz-adv-x="537" 
d="M419 413l52.999 -47c-35.333 -52.667 -75.333 -79 -120 -79c-28 0 -65.667 13.667 -113 41c-32 18.667 -56.667 28 -74 28c-20 0 -42.667 -17.333 -68 -52l-56 45c38 54.667 81.333 82 130 82c28.667 0 60.667 -11 96 -33l-1 1l13 -7l11 -7l-2 1
c1.33301 -1.33301 3.33301 -2.33301 6 -3c24.667 -14 45.334 -21 62.001 -21c20 0 41 17 63 51zM415.999 271l56.9971 -42c-35.333 -52.667 -75.666 -79 -120.999 -79c-12.667 0 -25.5 2 -38.5 6s-23.667 8 -32 12s-22.833 11.667 -43.5 23
c-33.333 18.667 -57.666 28 -72.999 28c-21.333 0 -43.666 -17.333 -66.999 -52l-57 46c36 54.667 79.333 82 130 82c23.333 0 54.333 -10 93 -30l6 -4l-4 3l13 -8l5 -2c30 -18 54 -27 72 -27s38 14.667 60 44z" />
    <glyph glyph-name="notequal" unicode="&#x2260;" horiz-adv-x="528" 
d="M385 488l-37 -80h132v-77h-165l-41 -93h206v-77h-240l-21 -46l-15 -33.5l-15 -33.5l-66 34l37 79h-125v77h159l40 93h-199v77h235l19 45l31 65z" />
    <glyph glyph-name="lessequal" unicode="&#x2264;" horiz-adv-x="467" 
d="M414 43h-386v77h386v-77zM401 619v-91l-259 -145l259 -141v-90l-360 203v58z" />
    <glyph glyph-name="greaterequal" unicode="&#x2265;" horiz-adv-x="471" 
d="M425 43h-386v77h386v-77zM52 525v91l360 -206v-58l-360 -203v90l259 141z" />
    <glyph glyph-name="lozenge" unicode="&#x25ca;" horiz-adv-x="546" 
d="M511 351l-214 -381h-72l-210 380l214 381h71zM415 350l-149.001 262c-1.33301 3.33301 -3 6 -5 8l-6 -11l-144 -257l150 -268l2 -4c0.666992 2 2.33398 5 5.00098 9zM249.999 45l5.5 16.002c3 8.66699 5.5 15 7.5 19l11 -35c0 -0.666992 0.166992 -1.33398 0.5 -2.00098
s0.5 -1.33398 0.5 -2.00098z" />
    <glyph glyph-name=".null" horiz-adv-x="0" 
 />
    <glyph glyph-name="nonmarkingreturn" horiz-adv-x="333" 
 />
    </font>
</defs>
</svg>
